<?xml version="1.0" standalone="no"?>
<!DOCTYPE svg PUBLIC "-//W3C//DTD SVG 1.1//EN" "http://www.w3.org/Graphics/SVG/1.1/DTD/svg11.dtd" >
<svg>
<metadata>
Created by FontForge 20090622 at Tue Dec  1 21:17:58 2015
 By deploy user
Copyright  2010 by Ryoichi Tsunekawa. All rights reserved.
</metadata>
<defs>
<font id="BebasNeueRegular" horiz-adv-x="387" >
  <font-face 
    font-family="Bebas Neue Regular"
    font-weight="400"
    font-stretch="normal"
    units-per-em="1000"
    panose-1="0 0 5 0 0 0 0 0 0 0"
    ascent="750"
    descent="-250"
    x-height="700"
    cap-height="700"
    bbox="-79 -179 831 887"
    underline-thickness="50"
    underline-position="-60"
    unicode-range="U+0020-U+F6C3"
  />
<missing-glyph horiz-adv-x="548" 
d="M50 0v700h448v-700h-448zM129 622l103 -264l-110 -281h55l92 236l92 -236h62l-110 281l103 264h-55l-86 -218l-85 218h-61z" />
    <glyph glyph-name=".notdef" horiz-adv-x="548" 
d="M50 0v700h448v-700h-448zM129 622l103 -264l-110 -281h55l92 236l92 -236h62l-110 281l103 264h-55l-86 -218l-85 218h-61z" />
    <glyph glyph-name=".null" horiz-adv-x="0" 
 />
    <glyph glyph-name="nonmarkingreturn" horiz-adv-x="333" 
 />
    <glyph glyph-name="space" unicode=" " horiz-adv-x="155" 
 />
    <glyph glyph-name="exclam" unicode="!" horiz-adv-x="158" 
d="M50 155l-10 216v329h78v-329l-10 -216h-58zM41 97h75v-97h-75v97z" />
    <glyph glyph-name="quotedbl" unicode="&#x22;" horiz-adv-x="265" 
d="M40 700h75l-11 -189h-54zM150 700h75l-11 -189h-54z" />
    <glyph glyph-name="numbersign" unicode="#" horiz-adv-x="412" 
d="M383 472h-56l-21 -205h56l-6 -56h-56l-22 -211h-64l22 211h-91l-23 -211h-64l23 211h-58l6 56h57l22 205h-59l6 56h58l18 172h64l-18 -172h92l18 172h64l-18 -172h56zM242 267l21 205h-91l-22 -205h92z" />
    <glyph glyph-name="dollar" unicode="$" 
d="M226 753v-56q124 -18 124 -172v-19h-73v24q0 100 -81 100q-80 0 -80 -100q0 -37 17.5 -67.5t43.5 -50.5l56.5 -44.5t56.5 -48t43.5 -61t17.5 -83.5q0 -73 -31.5 -118.5t-93.5 -54.5v-53h-64v53q-63 9 -94.5 54t-31.5 119v43h73v-48q0 -99 82 -99t82 99q0 43 -24 77
t-58.5 59.5l-69 52.5t-58.5 69.5t-24 96.5q0 153 123 172v56h64z" />
    <glyph glyph-name="percent" unicode="%" horiz-adv-x="616" 
d="M136 704q49 0 74.5 -30.5t25.5 -82.5v-221q0 -53 -25 -83t-75 -30t-75 30t-25 83v221q0 52 25.5 82.5t74.5 30.5zM420 700h47l-276 -700h-47zM136 658q-50 0 -50 -64v-228q0 -63 50 -63t50 63v228q0 64 -50 64zM480 442q50 0 75 -30t25 -82v-220q0 -53 -25 -83t-75 -30
t-75 30t-25 83v220q0 52 25 82t75 30zM480 396q-50 0 -50 -63v-227q0 -64 50 -64t50 64v227q0 63 -50 63z" />
    <glyph glyph-name="ampersand" unicode="&#x26;" horiz-adv-x="408" 
d="M319 629h-111q-90 0 -90 -99v-35q0 -45 21 -69t60 -26h79v78h77v-78h34v-70h-34v-241q0 -60 15 -89h-79q-12 25 -13 61q-30 -68 -110 -68q-64 0 -95.5 42.5t-31.5 118.5v68q0 115 83 146q-83 29 -83 143v16q0 173 165 173h113v-71zM278 330h-73q-87 -3 -87 -106v-64
q0 -96 81 -96q35 0 56.5 20.5t22.5 59.5v186z" />
    <glyph glyph-name="quotesingle" unicode="'" horiz-adv-x="151" 
d="M38 700h75l-11 -189h-54z" />
    <glyph glyph-name="parenleft" unicode="(" horiz-adv-x="241" 
d="M217 636h-23q-40 0 -56 -21.5t-16 -68.5v-392q0 -47 16 -68.5t56 -21.5h23v-64h-28q-79 0 -111.5 36.5t-32.5 117.5v392q0 81 32.5 117.5t111.5 36.5h28v-64z" />
    <glyph glyph-name="parenright" unicode=")" horiz-adv-x="241" 
d="M24 700h28q79 0 111.5 -36.5t32.5 -117.5v-392q0 -81 -32.5 -117.5t-111.5 -36.5h-28v64h23q40 0 56 21.5t16 68.5v392q0 47 -16 68.5t-56 21.5h-23v64z" />
    <glyph glyph-name="asterisk" unicode="*" horiz-adv-x="395" 
d="M377 541l-156 -31l106 -117l-51 -38l-79 139l-78 -139l-51 38l105 117l-155 32l19 61l146 -64l-18 158h64l-17 -158l146 63z" />
    <glyph glyph-name="plus" unicode="+" horiz-adv-x="392" 
d="M362 322h-138v-141h-56v141h-138v56h138v139h56v-139h138v-56z" />
    <glyph glyph-name="comma" unicode="," horiz-adv-x="160" 
d="M49 -88l25 88h-29v97h75v-90l-39 -95h-32z" />
    <glyph glyph-name="hyphen" unicode="-" horiz-adv-x="265" 
d="M37 315v70h191v-70h-191z" />
    <glyph glyph-name="period" unicode="." horiz-adv-x="155" 
d="M40 97h75v-97h-75v97z" />
    <glyph glyph-name="slash" unicode="/" horiz-adv-x="376" 
d="M292 700h68l-276 -700h-68z" />
    <glyph glyph-name="zero" unicode="0" horiz-adv-x="389" 
d="M34 170v361q0 82 40.5 129t119.5 47t120 -47t41 -129v-361q0 -82 -41 -129.5t-120 -47.5q-78 0 -119 47.5t-41 129.5zM111 535v-370q0 -101 83 -101t83 101v370q0 102 -83 102t-83 -102z" />
    <glyph glyph-name="one" unicode="1" horiz-adv-x="338" 
d="M183 0v573q-44 -27 -97 -30v64q52 2 78 26t42 67h54v-700h-77z" />
    <glyph glyph-name="two" unicode="2" 
d="M197 707q79 0 118.5 -47t39.5 -130q0 -58 -24.5 -111t-59.5 -92.5l-69.5 -77t-59.5 -80.5t-25 -87v-11h230v-71h-307v60q0 62 24.5 115t59 91.5l69.5 75t59.5 84t24.5 101.5q0 110 -82 110t-82 -103v-62h-73v57q0 83 39 130.5t118 47.5z" />
    <glyph glyph-name="three" unicode="3" 
d="M193 707q79 0 118.5 -46.5t39.5 -129.5v-18q0 -112 -85 -144q85 -32 85 -145v-54q0 -83 -39.5 -130t-118.5 -47q-78 0 -117.5 47t-39.5 130v48h73v-53q0 -101 82 -101t82 108v54q0 101 -88 104h-42v70h46q40 2 62 26.5t22 69.5v32q0 109 -82 109t-82 -102v-36h-73v32
q0 83 39.5 129.5t117.5 46.5z" />
    <glyph glyph-name="four" unicode="4" horiz-adv-x="400" 
d="M380 141h-56v-141h-76v141h-226v71l217 488h85v-488h56v-71zM248 554l-154 -342h154v342z" />
    <glyph glyph-name="five" unicode="5" 
d="M129 630l-11 -215q34 58 104 58q65 0 97.5 -44t32.5 -122v-137q0 -83 -40 -130t-118 -47t-117.5 47t-39.5 130v47h73v-52q0 -101 82 -101t82 101v136q0 101 -82 101q-69 0 -79 -75v-16h-73l19 389h276v-70h-206z" />
    <glyph glyph-name="six" unicode="6" horiz-adv-x="389" 
d="M196 707q79 0 118.5 -46t39.5 -129v-13h-73v18q0 100 -83 100q-85 0 -85 -113v-157q30 75 113 75q66 0 98 -44t32 -122v-106q0 -82 -41 -129.5t-119 -47.5q-79 0 -120 47.5t-41 129.5v357q0 86 40 133t121 47zM196 371q-83 0 -83 -101v-105q0 -101 83 -101t83 101v105
q0 101 -83 101z" />
    <glyph glyph-name="seven" unicode="7" 
d="M94 0l179 630h-238v70h317v-68l-180 -632h-78z" />
    <glyph glyph-name="eight" unicode="8" horiz-adv-x="392" 
d="M196 707q80 0 122.5 -45.5t42.5 -127.5v-22q0 -113 -80 -144q80 -32 80 -148v-52q0 -82 -42.5 -128.5t-122.5 -46.5t-122.5 46.5t-42.5 128.5v52q0 115 81 148q-81 31 -81 144v22q0 82 42.5 127.5t122.5 45.5zM196 637q-88 0 -88 -105v-34q0 -98 88 -98t88 98v34
q0 105 -88 105zM196 330q-88 0 -88 -101v-59q0 -106 88 -106q87 0 88 106v59q0 101 -88 101z" />
    <glyph glyph-name="nine" unicode="9" horiz-adv-x="389" 
d="M193 707q79 0 120 -47t41 -129v-357q0 -86 -40 -133.5t-122 -47.5q-78 0 -118 46.5t-40 129.5v13h73v-18q0 -100 83 -100q86 0 86 112v157q-29 -74 -113 -74q-66 0 -98 43.5t-32 121.5v107q0 82 40.5 129t119.5 47zM193 636q-83 0 -83 -101v-105q0 -101 83 -101t83 101
v105q0 101 -83 101z" />
    <glyph glyph-name="colon" unicode=":" horiz-adv-x="155" 
d="M40 478h75v-97h-75v97zM40 97h75v-97h-75v97z" />
    <glyph glyph-name="semicolon" unicode=";" horiz-adv-x="160" 
d="M45 478h75v-97h-75v97zM49 -88l25 88h-29v97h75v-90l-39 -95h-32z" />
    <glyph glyph-name="less" unicode="&#x3c;" horiz-adv-x="383" 
d="M343 252v-57l-310 127v56l310 127v-57l-237 -98z" />
    <glyph glyph-name="equal" unicode="=" horiz-adv-x="350" 
d="M37 456h276v-56h-276v56zM37 314h276v-56h-276v56z" />
    <glyph glyph-name="greater" unicode="&#x3e;" horiz-adv-x="383" 
d="M40 195v57l237 98l-237 98v57l310 -127v-56z" />
    <glyph glyph-name="question" unicode="?" horiz-adv-x="361" 
d="M182 707q79 0 117.5 -47t38.5 -130q0 -47 -14.5 -86.5t-35 -67l-40.5 -54t-34.5 -59t-14.5 -69.5q0 -18 5 -38h-70q-5 20 -5 40q0 51 20.5 94.5t45 71t45 73t20.5 99.5q0 103 -80 103t-80 -103v-62h-73v57q0 83 38.5 130.5t116.5 47.5zM131 97h74v-97h-74v97z" />
    <glyph glyph-name="at" unicode="@" horiz-adv-x="689" 
d="M391 735q143 0 208 -77.5t65 -210.5q0 -142 -54.5 -227t-128.5 -85t-79 68q-32 -69 -103 -68q-54 1 -76.5 42t-15.5 111l11 100q7 70 38.5 108.5t85.5 37.5q67 0 86 -66l7 62h68l-30 -287q-6 -43 29 -43q36 0 60.5 42.5t33.5 95t8 107.5q0 108 -53 168.5t-162 60.5
q-144 0 -218.5 -107t-74.5 -283q0 -133 62.5 -205t190.5 -72q116 0 197 63l-6 -69q-78 -54 -195 -54q-160 0 -238 90t-78 251q0 91 22 170.5t65.5 142t114 98.5t160.5 36zM362 466q-34 1 -53 -21.5t-24 -63.5l-9 -90q-10 -89 57 -90q33 -1 52.5 23t24.5 66l10 96
q4 36 -11 58t-47 22z" />
    <glyph glyph-name="A" unicode="A" horiz-adv-x="422" 
d="M296 141h-177l-27 -141h-72l134 700h113l134 -700h-78zM206 612l-77 -404h156z" />
    <glyph glyph-name="B" unicode="B" horiz-adv-x="392" 
d="M40 700h157q80 0 116 -38t36 -117v-33q0 -58 -19 -91.5t-63 -47.5q94 -26 94 -150v-59q0 -164 -160 -164h-161v700zM118 403h60q49 0 71.5 20t22.5 73v41q0 47 -18 69.5t-59 22.5h-77v-226zM118 71h83q83 0 83 95v62q0 57 -23 80.5t-75 23.5h-68v-261z" />
    <glyph glyph-name="C" unicode="C" horiz-adv-x="380" 
d="M191 707q79 0 118.5 -47t39.5 -129v-63h-74v67q0 101 -82 101t-82 -101v-370q0 -101 82 -101t82 101v91h74v-87q0 -82 -39.5 -129t-118.5 -47q-78 0 -117.5 47t-39.5 129v362q0 82 39.5 129t117.5 47z" />
    <glyph glyph-name="D" unicode="D" horiz-adv-x="396" 
d="M40 700h164q80 0 119.5 -45.5t39.5 -128.5v-353q0 -82 -39.5 -127.5t-119.5 -45.5h-164v700zM118 71h85q83 0 83 99v360q0 99 -84 99h-84v-558z" />
    <glyph glyph-name="E" unicode="E" horiz-adv-x="360" 
d="M118 390h171v-70h-171v-249h210v-71h-288v700h288v-71h-210v-239z" />
    <glyph glyph-name="F" unicode="F" horiz-adv-x="340" 
d="M118 374h161v-71h-161v-303h-78v700h278v-71h-200v-255z" />
    <glyph glyph-name="G" unicode="G" horiz-adv-x="383" 
d="M191 707q79 0 118.5 -47t39.5 -129v-60h-74v64q0 101 -82 101t-82 -101v-370q0 -101 82 -101t82 101v140h-72v70h146v-206q0 -82 -39.5 -129t-118.5 -47q-78 0 -117.5 47t-39.5 129v362q0 82 39.5 129t117.5 47z" />
    <glyph glyph-name="H" unicode="H" horiz-adv-x="408" 
d="M290 315h-172v-315h-78v700h78v-315h172v315h78v-700h-78v315z" />
    <glyph glyph-name="I" unicode="I" horiz-adv-x="158" 
d="M40 700h78v-700h-78v700z" />
    <glyph glyph-name="J" unicode="J" horiz-adv-x="255" 
d="M20 0v71q13 -1 39 -1q41 2 61.5 24.5t20.5 73.5v532h77v-527q0 -170 -149 -174q-41 0 -49 1z" />
    <glyph glyph-name="K" unicode="K" horiz-adv-x="409" 
d="M309 0l-150 304l-41 -69v-235h-78v700h78v-338l186 338h79l-177 -319l183 -381h-80z" />
    <glyph glyph-name="L" unicode="L" horiz-adv-x="337" 
d="M318 0h-278v700h78v-629h200v-71z" />
    <glyph glyph-name="M" unicode="M" horiz-adv-x="523" 
d="M409 563l-111 -562h-75l-116 557v-558h-68v700h109l115 -559l111 559h109v-700h-74v563z" />
    <glyph glyph-name="N" unicode="N" horiz-adv-x="409" 
d="M109 566v-566h-70v700h99l162 -506v506h69v-700h-81z" />
    <glyph glyph-name="O" unicode="O" horiz-adv-x="389" 
d="M34 169v362q0 82 40.5 129t119.5 47t120 -47t41 -129v-362q0 -82 -41 -129t-120 -47q-78 0 -119 47t-41 129zM111 535v-370q0 -101 83 -101t83 101v370q0 101 -83 101t-83 -101z" />
    <glyph glyph-name="P" unicode="P" horiz-adv-x="374" 
d="M40 700h153q157 0 157 -171v-84q0 -169 -163 -169h-69v-276h-78v700zM118 346h69q44 0 65 22t21 72v93q0 49 -19 72.5t-61 23.5h-75v-283z" />
    <glyph glyph-name="Q" unicode="Q" horiz-adv-x="402" 
d="M194 707q79 0 120 -47t41 -129v-362q0 -67 -27 -109q10 -22 43 -22h10v-69h-13q-64 0 -89 45q-36 -21 -85 -21q-78 0 -119 47t-41 129v362q0 82 40.5 129t119.5 47zM194 636q-83 0 -83 -101v-370q0 -101 83 -101t83 101v370q0 101 -83 101z" />
    <glyph glyph-name="R" unicode="R" horiz-adv-x="394" 
d="M40 700h156q81 0 118.5 -40t37.5 -120v-57q0 -116 -87 -144q88 -26 88 -146v-109q0 -58 14 -84h-79q-13 29 -13 85v110q0 57 -25.5 80.5t-76.5 23.5h-55v-299h-78v700zM118 370h58q50 0 74.5 21t24.5 75v67q0 96 -81 96h-76v-259z" />
    <glyph glyph-name="S" unicode="S" horiz-adv-x="372" 
d="M187 707q77 0 116.5 -46.5t39.5 -128.5v-19h-74v23q0 100 -80 100t-80 -99q0 -37 17.5 -68.5t43.5 -53l56.5 -48l56.5 -51t43.5 -63.5t17.5 -85q0 -82 -40 -128.5t-118 -46.5t-117.5 46.5t-39.5 128.5v40h73v-44q0 -100 82 -100t82 100q0 32 -13 59t-33.5 48t-45.5 41
l-50 42t-45.5 46t-33.5 58t-13 74q0 83 39 129t116 46z" />
    <glyph glyph-name="T" unicode="T" horiz-adv-x="363" 
d="M220 0h-78v629h-129v71h336v-71h-129v-629z" />
    <glyph glyph-name="U" unicode="U" 
d="M114 700v-535q0 -101 82 -101q81 0 81 101v535h73v-531q0 -83 -39 -130t-118 -47q-78 0 -117 47.5t-39 129.5v531h77z" />
    <glyph glyph-name="V" unicode="V" horiz-adv-x="418" 
d="M20 700h79l114 -609l113 609h72l-131 -700h-115z" />
    <glyph glyph-name="W" unicode="W" horiz-adv-x="583" 
d="M295 475l-69 -475h-107l-96 700h76l82 -596l78 595h77l77 -596l79 597h68l-95 -700h-103z" />
    <glyph glyph-name="X" unicode="X" horiz-adv-x="435" 
d="M330 0l-116 302l-117 -302h-74l141 361l-132 339h81l108 -280l109 280h73l-131 -339l140 -361h-82z" />
    <glyph glyph-name="Y" unicode="Y" horiz-adv-x="406" 
d="M164 0v251l-148 449h81l109 -344l110 344h74l-149 -449v-251h-77z" />
    <glyph glyph-name="Z" unicode="Z" horiz-adv-x="379" 
d="M347 71v-71h-318v70l240 559h-229v71h309v-70l-241 -559h239z" />
    <glyph glyph-name="bracketleft" unicode="[" horiz-adv-x="242" 
d="M122 64h92v-64h-169v700h169v-64h-92v-572z" />
    <glyph glyph-name="backslash" unicode="\" horiz-adv-x="376" 
d="M16 700h68l276 -700h-68z" />
    <glyph glyph-name="bracketright" unicode="]" horiz-adv-x="242" 
d="M28 64h91v572h-91v64h169v-700h-169v64z" />
    <glyph glyph-name="asciicircum" unicode="^" horiz-adv-x="403" 
d="M201 629l-111 -239h-63l146 310h57l146 -310h-63z" />
    <glyph glyph-name="underscore" unicode="_" horiz-adv-x="507" 
d="M13 -10h477v-57h-477v57z" />
    <glyph glyph-name="grave" unicode="`" horiz-adv-x="223" 
d="M43 848h81l69 -103h-57z" />
    <glyph glyph-name="a" unicode="a" horiz-adv-x="422" 
d="M296 141h-177l-27 -141h-72l134 700h113l134 -700h-78zM206 612l-77 -404h156z" />
    <glyph glyph-name="b" unicode="b" horiz-adv-x="392" 
d="M40 700h157q80 0 116 -38t36 -117v-33q0 -58 -19 -91.5t-63 -47.5q94 -26 94 -150v-59q0 -164 -160 -164h-161v700zM118 403h60q49 0 71.5 20t22.5 73v41q0 47 -18 69.5t-59 22.5h-77v-226zM118 71h83q83 0 83 95v62q0 57 -23 80.5t-75 23.5h-68v-261z" />
    <glyph glyph-name="c" unicode="c" horiz-adv-x="380" 
d="M191 707q79 0 118.5 -47t39.5 -129v-63h-74v67q0 101 -82 101t-82 -101v-370q0 -101 82 -101t82 101v91h74v-87q0 -82 -39.5 -129t-118.5 -47q-78 0 -117.5 47t-39.5 129v362q0 82 39.5 129t117.5 47z" />
    <glyph glyph-name="d" unicode="d" horiz-adv-x="396" 
d="M40 700h164q80 0 119.5 -45.5t39.5 -128.5v-353q0 -82 -39.5 -127.5t-119.5 -45.5h-164v700zM118 71h85q83 0 83 99v360q0 99 -84 99h-84v-558z" />
    <glyph glyph-name="e" unicode="e" horiz-adv-x="360" 
d="M118 390h171v-70h-171v-249h210v-71h-288v700h288v-71h-210v-239z" />
    <glyph glyph-name="f" unicode="f" horiz-adv-x="340" 
d="M118 374h161v-71h-161v-303h-78v700h278v-71h-200v-255z" />
    <glyph glyph-name="g" unicode="g" horiz-adv-x="383" 
d="M191 707q79 0 118.5 -47t39.5 -129v-60h-74v64q0 101 -82 101t-82 -101v-370q0 -101 82 -101t82 101v140h-72v70h146v-206q0 -82 -39.5 -129t-118.5 -47q-78 0 -117.5 47t-39.5 129v362q0 82 39.5 129t117.5 47z" />
    <glyph glyph-name="h" unicode="h" horiz-adv-x="408" 
d="M290 315h-172v-315h-78v700h78v-315h172v315h78v-700h-78v315z" />
    <glyph glyph-name="i" unicode="i" horiz-adv-x="158" 
d="M40 700h78v-700h-78v700z" />
    <glyph glyph-name="j" unicode="j" horiz-adv-x="255" 
d="M20 0v71q13 -1 39 -1q41 2 61.5 24.5t20.5 73.5v532h77v-527q0 -170 -149 -174q-41 0 -49 1z" />
    <glyph glyph-name="k" unicode="k" horiz-adv-x="409" 
d="M309 0l-150 304l-41 -69v-235h-78v700h78v-338l186 338h79l-177 -319l183 -381h-80z" />
    <glyph glyph-name="l" unicode="l" horiz-adv-x="337" 
d="M318 0h-278v700h78v-629h200v-71z" />
    <glyph glyph-name="m" unicode="m" horiz-adv-x="523" 
d="M409 563l-111 -562h-75l-116 557v-558h-68v700h109l115 -559l111 559h109v-700h-74v563z" />
    <glyph glyph-name="n" unicode="n" horiz-adv-x="409" 
d="M109 566v-566h-70v700h99l162 -506v506h69v-700h-81z" />
    <glyph glyph-name="o" unicode="o" horiz-adv-x="389" 
d="M34 169v362q0 82 40.5 129t119.5 47t120 -47t41 -129v-362q0 -82 -41 -129t-120 -47q-78 0 -119 47t-41 129zM111 535v-370q0 -101 83 -101t83 101v370q0 101 -83 101t-83 -101z" />
    <glyph glyph-name="p" unicode="p" horiz-adv-x="371" 
d="M40 700h153q157 0 157 -171v-84q0 -169 -163 -169h-69v-276h-78v700zM118 346h69q44 0 65 22t21 72v93q0 49 -19 72.5t-61 23.5h-75v-283z" />
    <glyph glyph-name="q" unicode="q" horiz-adv-x="392" 
d="M194 707q79 0 120 -47t41 -129v-362q0 -67 -27 -109q10 -22 43 -22h10v-69h-13q-64 0 -89 45q-36 -21 -85 -21q-78 0 -119 47t-41 129v362q0 82 40.5 129t119.5 47zM194 636q-83 0 -83 -101v-370q0 -101 83 -101t83 101v370q0 101 -83 101z" />
    <glyph glyph-name="r" unicode="r" horiz-adv-x="394" 
d="M40 700h156q81 0 118.5 -40t37.5 -120v-57q0 -116 -87 -144q88 -26 88 -146v-109q0 -58 14 -84h-79q-13 29 -13 85v110q0 57 -25.5 80.5t-76.5 23.5h-55v-299h-78v700zM118 370h58q50 0 74.5 21t24.5 75v67q0 96 -81 96h-76v-259z" />
    <glyph glyph-name="s" unicode="s" horiz-adv-x="372" 
d="M187 707q77 0 116.5 -46.5t39.5 -128.5v-19h-74v23q0 100 -80 100t-80 -99q0 -37 17.5 -68.5t43.5 -53l56.5 -48l56.5 -51t43.5 -63.5t17.5 -85q0 -82 -40 -128.5t-118 -46.5t-117.5 46.5t-39.5 128.5v40h73v-44q0 -100 82 -100t82 100q0 32 -13 59t-33.5 48t-45.5 41
l-50 42t-45.5 46t-33.5 58t-13 74q0 83 39 129t116 46z" />
    <glyph glyph-name="t" unicode="t" horiz-adv-x="360" 
d="M218 0h-77v629h-129v71h335v-71h-129v-629z" />
    <glyph glyph-name="u" unicode="u" 
d="M114 700v-535q0 -101 82 -101q81 0 81 101v535h73v-531q0 -83 -39 -130t-118 -47q-78 0 -117 47.5t-39 129.5v531h77z" />
    <glyph glyph-name="v" unicode="v" horiz-adv-x="418" 
d="M20 700h79l114 -609l113 609h72l-131 -700h-115z" />
    <glyph glyph-name="w" unicode="w" horiz-adv-x="583" 
d="M295 475l-69 -475h-107l-96 700h76l82 -596l78 595h77l77 -596l79 597h68l-95 -700h-103z" />
    <glyph glyph-name="x" unicode="x" horiz-adv-x="435" 
d="M330 0l-116 302l-117 -302h-74l141 361l-132 339h81l108 -280l109 280h73l-131 -339l140 -361h-82z" />
    <glyph glyph-name="y" unicode="y" horiz-adv-x="406" 
d="M164 0v251l-148 449h81l109 -344l110 344h74l-149 -449v-251h-77z" />
    <glyph glyph-name="z" unicode="z" horiz-adv-x="379" 
d="M347 71v-71h-318v70l240 559h-229v71h309v-70l-241 -559h239z" />
    <glyph glyph-name="braceleft" unicode="{" horiz-adv-x="257" 
d="M233 636h-19q-30 0 -42.5 -17.5t-14.5 -59.5l-6 -113q-2 -37 -15.5 -61.5t-49.5 -34.5q36 -10 49.5 -34.5t15.5 -61.5l6 -113q2 -42 14.5 -59.5t42.5 -17.5h19v-64h-46q-92 0 -100 107l-7 136q-2 39 -13.5 55t-46.5 19v66q35 3 46.5 19t13.5 55l7 136q8 107 100 107h46
v-64z" />
    <glyph glyph-name="bar" unicode="|" horiz-adv-x="373" 
d="M158 744h64v-788h-64v788z" />
    <glyph glyph-name="braceright" unicode="}" horiz-adv-x="257" 
d="M24 700h46q93 0 99 -107l8 -136q2 -40 13 -55.5t46 -18.5v-66q-35 -3 -46 -18.5t-13 -55.5l-8 -136q-6 -107 -99 -107h-46v64h19q30 0 42.5 17.5t14.5 59.5l6 113q2 38 15 62t50 34q-37 10 -50 34t-15 62l-6 113q-2 42 -14.5 59.5t-42.5 17.5h-19v64z" />
    <glyph glyph-name="asciitilde" unicode="~" horiz-adv-x="396" 
d="M125 410q30 1 79 -30t71 -31q18 0 31 12t34 43l38 -38q-49 -76 -103 -77q-29 -1 -78.5 30.5t-71.5 31.5q-19 0 -33.5 -12.5t-35.5 -43.5l-38 36q29 43 53.5 61t53.5 18z" />
    <glyph glyph-name="uni00A0" unicode="&#xa0;" horiz-adv-x="155" 
 />
    <glyph glyph-name="exclamdown" unicode="&#xa1;" horiz-adv-x="158" 
d="M41 700h75v-96h-75v96zM40 0v309l10 236h58l10 -236v-309h-78z" />
    <glyph glyph-name="cent" unicode="&#xa2;" 
d="M225 710v-49q64 -8 95.5 -53t31.5 -118v-40h-73v44q0 99 -82 99t-82 -101v-284q0 -100 82 -100t82 100v67h73v-62q0 -74 -31.5 -119.5t-95.5 -53.5v-50h-64v50q-62 9 -93 54.5t-31 118.5v274q0 73 31 118.5t93 54.5v50h64z" />
    <glyph glyph-name="sterling" unicode="&#xa3;" horiz-adv-x="391" 
d="M200 707q78 0 116.5 -47.5t38.5 -130.5v-56h-74v60q0 103 -79 103q-80 0 -80 -102q0 -54 13 -96t32.5 -83t27.5 -69h134v-61h-129q1 -81 -69 -154h221v-71h-319v68q44 18 72.5 59.5t24.5 97.5h-83v61h73q-8 25 -29.5 66.5t-34 82.5t-12.5 95q0 83 38.5 130t117.5 47z" />
    <glyph glyph-name="currency" unicode="&#xa4;" horiz-adv-x="372" 
d="M338 470l-52 -52q22 -30 22 -68q0 -39 -22 -69l52 -51l-32 -31l-51 50q-31 -21 -69 -21q-37 0 -69 21l-51 -50l-31 31l51 51q-22 30 -22 69q0 40 22 68l-51 52l31 31l52 -51q30 22 68 22t69 -22l51 51zM186 424q-31 0 -52.5 -21.5t-21.5 -52.5t21.5 -52.5t52.5 -21.5
t53 21.5t22 52.5t-22 52.5t-53 21.5z" />
    <glyph glyph-name="yen" unicode="&#xa5;" horiz-adv-x="414" 
d="M346 232h-100v-59h100v-40h-100v-133h-78v133h-100v40h100v59h-100v41h94l-144 427h81l111 -342l112 342h74l-145 -427h95v-41z" />
    <glyph glyph-name="brokenbar" unicode="&#xa6;" horiz-adv-x="374" 
d="M158 410v334h64v-334h-64zM158 -44v334h64v-334h-64z" />
    <glyph glyph-name="section" unicode="&#xa7;" 
d="M194 707q71 0 112.5 -36t41.5 -96v-27h-74v17q0 35 -21.5 56t-56.5 21q-36 0 -58.5 -18t-22.5 -53q-1 -28 23 -48t58.5 -34.5t69 -33t59 -53.5t24.5 -84q0 -42 -22.5 -75t-60.5 -52q85 -46 84 -129q-1 -59 -44 -95.5t-112 -36.5q-73 0 -115 35.5t-42 96.5v41h74v-31
q0 -36 22.5 -56.5t58.5 -20.5q34 0 56.5 18.5t23.5 51.5q1 28 -23 48.5t-59 35t-69.5 32.5t-58.5 52.5t-24 83.5q0 42 23.5 75t63.5 51q-42 24 -65 53.5t-23 77.5q1 60 43 96.5t114 36.5zM191 412q-33 -5 -56 -31t-23 -61q-1 -36 22.5 -57.5t66.5 -40.5q32 8 53 33.5
t21 60.5q0 34 -22 55.5t-62 40.5z" />
    <glyph glyph-name="dieresis" unicode="&#xa8;" horiz-adv-x="219" 
d="M35 831h68v-90h-68v90zM116 831h68v-90h-68v90z" />
    <glyph glyph-name="copyright" unicode="&#xa9;" horiz-adv-x="742" 
d="M371 704q149 0 246.5 -100.5t97.5 -253.5t-97.5 -253.5t-246.5 -100.5t-246.5 100.5t-97.5 253.5t97.5 253.5t246.5 100.5zM371 654q-127 0 -210 -86.5t-83 -217.5t83 -217.5t210 -86.5t210 86.5t83 217.5t-83 217.5t-210 86.5zM367 570q54 0 81.5 -33t27.5 -91v-30h-52
v34q0 69 -56 69t-56 -69v-200q0 -69 56 -69t56 69v49h52v-46q0 -57 -27.5 -90t-81.5 -33q-55 0 -82 32.5t-27 90.5v193q0 58 27 91t82 33z" />
    <glyph glyph-name="ordfeminine" unicode="&#xaa;" horiz-adv-x="275" 
d="M147 705q91 0 91 -110v-261h-43l-3 55q-19 -60 -78 -60q-81 0 -81 99v4q0 116 155 120v50q0 57 -43 57q-50 0 -50 -61v-18h-47v15q0 110 99 110zM188 435v79q-104 -5 -104 -75v-7q0 -56 49 -56q48 0 55 59zM34 277h204v-50h-204v50z" />
    <glyph glyph-name="guillemotleft" unicode="&#xab;" horiz-adv-x="320" 
d="M87 90l-63 261l63 251h71l-63 -251l63 -261h-71zM226 90l-64 261l64 251h70l-63 -251l63 -261h-70z" />
    <glyph glyph-name="logicalnot" unicode="&#xac;" horiz-adv-x="388" 
d="M302 322h-272v56h328v-191h-56v135z" />
    <glyph glyph-name="uni00AD" unicode="&#xad;" horiz-adv-x="265" 
d="M37 315v70h191v-70h-191z" />
    <glyph glyph-name="registered" unicode="&#xae;" horiz-adv-x="742" 
d="M371 704q149 0 246.5 -100.5t97.5 -253.5t-97.5 -253.5t-246.5 -100.5t-246.5 100.5t-97.5 253.5t97.5 253.5t246.5 100.5zM371 654q-127 0 -210 -86.5t-83 -217.5t83 -217.5t210 -86.5t210 86.5t83 217.5t-83 217.5t-210 86.5zM267 564h109q109 0 109 -112v-10
q0 -80 -58 -101q58 -19 58 -100v-46q0 -40 11 -59h-57q-8 19 -8 59v46q0 40 -18 56t-55 16h-37v-177h-54v428zM321 364h45q32 0 48 15t16 51v16q0 68 -57 68h-52v-150z" />
    <glyph glyph-name="macron" unicode="&#xaf;" horiz-adv-x="251" 
d="M20 800h212v-56h-212v56z" />
    <glyph glyph-name="degree" unicode="&#xb0;" horiz-adv-x="219" 
d="M109 708q36 0 61.5 -25t25.5 -61t-25.5 -61t-61.5 -25q-35 0 -60.5 25t-25.5 61t25.5 61t60.5 25zM109 671q-20 0 -34.5 -14t-14.5 -35q0 -20 14.5 -34.5t34.5 -14.5t35 14.5t15 34.5q0 21 -14.5 35t-35.5 14z" />
    <glyph glyph-name="plusminus" unicode="&#xb1;" horiz-adv-x="392" 
d="M37 237h131v99h-131v56h131v125h56v-125h131v-56h-131v-99h131v-56h-318v56z" />
    <glyph glyph-name="twosuperior" unicode="&#xb2;" horiz-adv-x="275" 
d="M142 801q50 0 75 -30t25 -83q0 -37 -15.5 -70.5t-37.5 -58.5l-44 -49t-37.5 -51.5t-16.5 -55.5v-6h146v-46h-196v38q0 39 15.5 73t37.5 58.5l44.5 48t38 53.5t15.5 65q0 68 -52 68q-51 0 -51 -65v-38h-48v35q0 53 25 83.5t76 30.5z" />
    <glyph glyph-name="threesuperior" unicode="&#xb3;" horiz-adv-x="275" 
d="M138 800q50 0 75 -30t25 -83v-11q0 -70 -52 -91q52 -20 52 -92v-34q0 -53 -25 -83t-75 -30t-75.5 30t-25.5 83v30h48v-34q0 -63 51 -63q52 0 52 68v34q0 65 -55 65h-27v46h29q24 0 38.5 16.5t14.5 44.5v20q0 68 -52 68q-51 0 -51 -63v-23h-48v19q0 53 25.5 83t75.5 30z
" />
    <glyph glyph-name="acute" unicode="&#xb4;" horiz-adv-x="223" 
d="M101 848h77l-93 -103h-54z" />
    <glyph glyph-name="uni00B5" unicode="&#xb5;" horiz-adv-x="398" 
d="M286 0v72q-14 -36 -41 -57.5t-60 -21.5q-51 0 -68 46v-131h-78v592h78v-334q0 -101 81 -101t81 101v334h78v-500h-71z" />
    <glyph glyph-name="paragraph" unicode="&#xb6;" horiz-adv-x="396" 
d="M293 643h-90v-706h-57l1 340q-64 1 -96 45.5t-32 122.5v86q0 169 151 169h180v-763h-57v706z" />
    <glyph glyph-name="periodcentered" unicode="&#xb7;" horiz-adv-x="155" 
d="M40 403h75v-97h-75v97z" />
    <glyph glyph-name="cedilla" unicode="&#xb8;" horiz-adv-x="249" 
d="M143 9v-48q74 0 74 -49q0 -35 -25 -48t-69 -13q-92 0 -92 59v8h53v-7q0 -28 39 -30q40 0 40 33q0 32 -47 32h-8v63h35z" />
    <glyph glyph-name="onesuperior" unicode="&#xb9;" horiz-adv-x="189" 
d="M30 700v37q33 1 49 15.5t27 42.5h35v-444h-50v367q-25 -15 -61 -18z" />
    <glyph glyph-name="ordmasculine" unicode="&#xba;" horiz-adv-x="277" 
d="M138 705q50 0 76.5 -30t26.5 -82v-153q0 -52 -26.5 -82t-76.5 -30t-76 30t-26 82v153q0 52 26 82t76 30zM138 659q-52 0 -52 -63v-159q0 -63 52 -63t52 63v159q0 63 -52 63zM37 278h204v-50h-204v50z" />
    <glyph glyph-name="guillemotright" unicode="&#xbb;" horiz-adv-x="320" 
d="M24 90l63 261l-63 251h70l64 -251l-64 -261h-70zM162 90l63 261l-63 251h70l64 -251l-64 -261h-70z" />
    <glyph glyph-name="onequarter" unicode="&#xbc;" horiz-adv-x="577" 
d="M118 256v367q-25 -15 -61 -18v37q33 1 49 15.5t27 42.5h35v-444h-50zM459 700l-276 -700h-47l276 700h47zM516 88v-88h-50v88h-143v47l137 309h56v-309h34v-47h-34zM369 135h97v212z" />
    <glyph glyph-name="onehalf" unicode="&#xbd;" horiz-adv-x="599" 
d="M118 256v367q-25 -15 -61 -18v37q33 1 49 15.5t27 42.5h35v-444h-50zM392 700h47l-276 -700h-47zM466 450q50 0 75 -30t25 -83q0 -37 -15.5 -70.5t-37.5 -58l-44 -48.5t-37.5 -51.5t-16.5 -55.5v-7h146v-46h-196v38q0 39 15.5 73t37.5 58.5l44.5 48t38 53.5t15.5 65
q0 68 -52 68q-51 0 -51 -65v-38h-48v35q0 53 25 83.5t76 30.5z" />
    <glyph glyph-name="threequarters" unicode="&#xbe;" horiz-adv-x="602" 
d="M138 705q50 0 75 -30t25 -83v-11q0 -70 -52 -91q52 -20 52 -92v-34q0 -53 -25 -83t-75 -30t-75.5 30t-25.5 83v30h48v-34q0 -63 51 -63q52 0 52 68v34q0 65 -55 65h-27v46h29q24 0 38.5 16.5t14.5 44.5v20q0 68 -52 68q-51 0 -51 -63v-23h-48v19q0 53 25.5 83t75.5 30z
M168 0l276 700h47l-276 -700h-47zM491 0v88h-143v47l137 309h56v-309h34v-47h-34v-88h-50zM491 347l-97 -212h97v212z" />
    <glyph glyph-name="questiondown" unicode="&#xbf;" horiz-adv-x="361" 
d="M156 700h75v-97h-75v97zM158 544h69q6 -18 6 -40q0 -42 -14 -77.5t-33 -62l-38.5 -53t-33 -63.5t-13.5 -82q0 -103 80 -103t80 103v62h74v-57q0 -83 -39 -130.5t-117 -47.5t-116.5 47t-38.5 130q0 47 14 86.5t34.5 67l41 54t34.5 59t14 69.5q0 22 -4 38z" />
    <glyph glyph-name="Agrave" unicode="&#xc0;" horiz-adv-x="422" 
d="M110 840h80l70 -103h-57zM296 141h-177l-27 -141h-72l134 700h113l134 -700h-78zM206 612l-77 -404h156z" />
    <glyph glyph-name="Aacute" unicode="&#xc1;" horiz-adv-x="422" 
d="M228 840h77l-92 -103h-55zM296 141h-177l-27 -141h-72l134 700h113l134 -700h-78zM206 612l-77 -404h156z" />
    <glyph glyph-name="Acircumflex" unicode="&#xc2;" horiz-adv-x="422" 
d="M210 796l-53 -59h-68l86 100h70l86 -100h-68zM296 141h-177l-27 -141h-72l134 700h113l134 -700h-78zM206 612l-77 -404h156z" />
    <glyph glyph-name="Atilde" unicode="&#xc3;" horiz-adv-x="422" 
d="M161 826q22 0 50 -15t42 -15q26 2 40 30l39 -27q-23 -57 -71 -57q-21 -1 -49.5 14t-42.5 15q-28 0 -42 -30l-39 27q22 56 73 58zM296 141h-177l-27 -141h-72l134 700h113l134 -700h-78zM206 612l-77 -404h156z" />
    <glyph glyph-name="Adieresis" unicode="&#xc4;" horiz-adv-x="422" 
d="M114 827h68v-90h-68v90zM238 827h68v-90h-68v90zM296 141h-177l-27 -141h-72l134 700h113l134 -700h-78zM206 612l-77 -404h156z" />
    <glyph glyph-name="Aring" unicode="&#xc5;" horiz-adv-x="422" 
d="M210 883q31 0 52 -21t21 -52t-21 -52t-52 -21q-32 0 -53 21t-21 52t21.5 52t52.5 21zM210 846q-16 0 -26.5 -10.5t-10.5 -25.5q0 -16 10.5 -26t26.5 -10q15 0 25.5 10t10.5 26q0 15 -10.5 25.5t-25.5 10.5zM296 141h-177l-27 -141h-72l134 700h113l134 -700h-78zM206 612
l-77 -404h156z" />
    <glyph glyph-name="AE" unicode="&#xc6;" horiz-adv-x="585" 
d="M355 390h161v-70h-161v-249h198v-71h-275v142h-143l-45 -142h-74l218 700h319v-71h-198v-239zM278 602l-125 -392h125v392z" />
    <glyph glyph-name="Ccedilla" unicode="&#xc7;" horiz-adv-x="380" 
d="M191 707q79 0 118.5 -47t39.5 -129v-63h-74v67q0 101 -82 101t-82 -101v-370q0 -101 82 -101t82 101v91h74v-87q0 -77 -35.5 -124t-105.5 -51v-31q35 0 54.5 -13.5t19.5 -37.5q0 -30 -25 -47t-70 -17q-43 0 -67.5 16.5t-24.5 45.5v8h51v-7q0 -26 41 -29q43 0 43 32
q0 30 -49 30h-9v50q-69 5 -103.5 51.5t-34.5 123.5v362q0 82 39.5 129t117.5 47z" />
    <glyph glyph-name="Egrave" unicode="&#xc8;" horiz-adv-x="360" 
d="M86 845h81l69 -103h-57zM118 390h171v-70h-171v-249h210v-71h-288v700h288v-71h-210v-239z" />
    <glyph glyph-name="Eacute" unicode="&#xc9;" horiz-adv-x="360" 
d="M206 842h77l-93 -103h-54zM118 390h171v-70h-171v-249h210v-71h-288v700h288v-71h-210v-239z" />
    <glyph glyph-name="Ecircumflex" unicode="&#xca;" horiz-adv-x="360" 
d="M182 799l-52 -60h-68l86 101h69l87 -101h-68zM118 390h171v-70h-171v-249h210v-71h-288v700h288v-71h-210v-239z" />
    <glyph glyph-name="Edieresis" unicode="&#xcb;" horiz-adv-x="360" 
d="M87 829h68v-90h-68v90zM211 829h68v-90h-68v90zM118 390h171v-70h-171v-249h210v-71h-288v700h288v-71h-210v-239z" />
    <glyph glyph-name="Igrave" unicode="&#xcc;" horiz-adv-x="158" 
d="M68 739l-93 103h81l70 -103h-58zM40 0v700h78v-700h-78z" />
    <glyph glyph-name="Iacute" unicode="&#xcd;" horiz-adv-x="158" 
d="M31 739l69 103h78l-93 -103h-54zM40 0v700h78v-700h-78z" />
    <glyph glyph-name="Icircumflex" unicode="&#xce;" horiz-adv-x="158" 
d="M44 839h69l87 -100h-68l-53 59l-53 -59h-68zM40 0v700h78v-700h-78z" />
    <glyph glyph-name="Idieresis" unicode="&#xcf;" horiz-adv-x="158" 
d="M-17 829h68v-90h-68v90zM107 829h68v-90h-68v90zM40 700h78v-700h-78v700z" />
    <glyph glyph-name="Eth" unicode="&#xd0;" horiz-adv-x="396" 
d="M40 700h164q80 0 119.5 -45.5t39.5 -128.5v-353q0 -82 -39.5 -127.5t-119.5 -45.5h-164v318h-41v64h41v318zM196 382v-64h-78v-247h85q83 0 83 99v360q0 99 -84 99h-84v-247h78z" />
    <glyph glyph-name="Ntilde" unicode="&#xd1;" horiz-adv-x="409" 
d="M288 830l39 -26q-23 -58 -71 -58q-21 -1 -49.5 14t-42.5 15q-28 0 -42 -29l-39 26q23 58 74 58q21 0 49 -14.5t42 -14.5q26 0 40 29zM109 566v-566h-70v700h99l162 -506v506h69v-700h-81z" />
    <glyph glyph-name="Ograve" unicode="&#xd2;" horiz-adv-x="389" 
d="M93 845h81l69 -103h-57zM194 707q79 0 120 -47t41 -129v-362q0 -82 -41 -129t-120 -47q-78 0 -119 47t-41 129v362q0 82 40.5 129t119.5 47zM194 636q-83 0 -83 -101v-370q0 -101 83 -101t83 101v370q0 101 -83 101z" />
    <glyph glyph-name="Oacute" unicode="&#xd3;" horiz-adv-x="389" 
d="M216 845h77l-93 -103h-54zM194 707q79 0 120 -47t41 -129v-362q0 -82 -41 -129t-120 -47q-78 0 -119 47t-41 129v362q0 82 40.5 129t119.5 47zM194 636q-83 0 -83 -101v-370q0 -101 83 -101t83 101v370q0 101 -83 101z" />
    <glyph glyph-name="Ocircumflex" unicode="&#xd4;" horiz-adv-x="389" 
d="M193 800l-52 -59h-68l86 101h69l87 -101h-68zM194 707q79 0 120 -47t41 -129v-362q0 -82 -41 -129t-120 -47q-78 0 -119 47t-41 129v362q0 82 40.5 129t119.5 47zM194 636q-83 0 -83 -101v-370q0 -101 83 -101t83 101v370q0 101 -83 101z" />
    <glyph glyph-name="Otilde" unicode="&#xd5;" horiz-adv-x="389" 
d="M280 829l38 -27q-21 -57 -71 -57q-21 -1 -49.5 14t-42.5 15q-27 0 -42 -30l-39 27q23 56 74 58q21 0 49.5 -15t42.5 -15q25 1 40 30zM194 707q79 0 120 -47t41 -129v-362q0 -82 -41 -129t-120 -47q-78 0 -119 47t-41 129v362q0 82 40.5 129t119.5 47zM194 636
q-83 0 -83 -101v-370q0 -101 83 -101t83 101v370q0 101 -83 101z" />
    <glyph glyph-name="Odieresis" unicode="&#xd6;" horiz-adv-x="389" 
d="M98 831h68v-90h-68v90zM222 831h68v-90h-68v90zM194 707q79 0 120 -47t41 -129v-362q0 -82 -41 -129t-120 -47q-78 0 -119 47t-41 129v362q0 82 40.5 129t119.5 47zM194 636q-83 0 -83 -101v-370q0 -101 83 -101t83 101v370q0 101 -83 101z" />
    <glyph glyph-name="multiply" unicode="&#xd7;" horiz-adv-x="366" 
d="M327 244l-38 -38l-106 106l-106 -106l-38 38l105 106l-105 105l38 38l106 -105l106 105l38 -38l-106 -105z" />
    <glyph glyph-name="Oslash" unicode="&#xd8;" horiz-adv-x="389" 
d="M350 712l-25 -66q30 -45 30 -115v-362q0 -82 -41 -129t-120 -47q-63 0 -102 31l-19 -50l-34 13l25 67q-30 45 -30 115v362q0 82 40.5 129t119.5 47q63 0 103 -31l18 49zM111 180l155 414q-20 42 -72 42q-83 0 -83 -101v-355zM194 64q83 0 83 101v353l-155 -413
q20 -41 72 -41z" />
    <glyph glyph-name="Ugrave" unicode="&#xd9;" 
d="M92 842h81l70 -103h-58zM350 700v-531q0 -83 -39 -130t-118 -47q-78 0 -117 47.5t-39 129.5v531h77v-535q0 -101 82 -101q81 0 81 101v535h73z" />
    <glyph glyph-name="Uacute" unicode="&#xda;" 
d="M219 845h77l-93 -103h-54zM350 700v-531q0 -83 -39 -130t-118 -47q-78 0 -117 47.5t-39 129.5v531h77v-535q0 -101 82 -101q81 0 81 101v535h73z" />
    <glyph glyph-name="Ucircumflex" unicode="&#xdb;" 
d="M194 800l-52 -59h-68l86 101h69l87 -101h-68zM350 700v-531q0 -83 -39 -130t-118 -47q-78 0 -117 47.5t-39 129.5v531h77v-535q0 -101 82 -101q81 0 81 101v535h73z" />
    <glyph glyph-name="Udieresis" unicode="&#xdc;" 
d="M98 830h69v-90h-69v90zM223 830h68v-90h-68v90zM350 700v-531q0 -83 -39 -130t-118 -47q-78 0 -117 47.5t-39 129.5v531h77v-535q0 -101 82 -101q81 0 81 101v535h73z" />
    <glyph glyph-name="Yacute" unicode="&#xdd;" horiz-adv-x="406" 
d="M230 842h77l-93 -103h-54zM164 0v251l-148 449h81l109 -344l110 344h74l-149 -449v-251h-77z" />
    <glyph glyph-name="Thorn" unicode="&#xde;" horiz-adv-x="377" 
d="M118 599h75q157 0 157 -172v-83q0 -170 -163 -170h-69v-174h-78v700h78v-101zM118 245h69q44 0 65 22t21 72v93q0 96 -80 96h-75v-283z" />
    <glyph glyph-name="germandbls" unicode="&#xdf;" horiz-adv-x="729" 
d="M185 707q78 0 117 -46.5t39 -128.5v-19h-74v23q0 100 -80 100t-80 -99q0 -37 17.5 -68.5t43.5 -53l56.5 -48l56.5 -51t43.5 -63.5t17.5 -85q0 -82 -39.5 -128.5t-118.5 -46.5q-78 0 -117.5 46.5t-39.5 128.5v40h73v-44q0 -100 82 -100t82 100q0 32 -13 59t-33.5 48
t-45.5 41l-50 42t-45.5 46t-33.5 58t-13 74q0 83 39 129t116 46zM546 707q77 0 116 -46.5t39 -128.5v-19h-73v23q0 100 -80 100t-80 -99q0 -32 13 -59.5t33.5 -48.5t45.5 -41l50 -42t45.5 -46t33.5 -58t13 -74q0 -82 -39.5 -128.5t-117.5 -46.5q-79 0 -118.5 46.5
t-39.5 128.5v40h74v-44q0 -100 82 -100t82 100q0 36 -17.5 67.5t-43.5 53.5l-56.5 48t-56.5 51t-43.5 63.5t-17.5 84.5q0 83 39.5 129t116.5 46z" />
    <glyph glyph-name="agrave" unicode="&#xe0;" horiz-adv-x="422" 
d="M110 840h80l70 -103h-57zM296 141h-177l-27 -141h-72l134 700h113l134 -700h-78zM206 612l-77 -404h156z" />
    <glyph glyph-name="aacute" unicode="&#xe1;" horiz-adv-x="422" 
d="M228 840h77l-92 -103h-55zM296 141h-177l-27 -141h-72l134 700h113l134 -700h-78zM206 612l-77 -404h156z" />
    <glyph glyph-name="acircumflex" unicode="&#xe2;" horiz-adv-x="422" 
d="M210 796l-53 -59h-68l86 100h70l86 -100h-68zM296 141h-177l-27 -141h-72l134 700h113l134 -700h-78zM206 612l-77 -404h156z" />
    <glyph glyph-name="atilde" unicode="&#xe3;" horiz-adv-x="422" 
d="M161 826q22 0 50 -15t42 -15q26 2 40 30l39 -27q-23 -57 -71 -57q-21 -1 -49.5 14t-42.5 15q-28 0 -42 -30l-39 27q22 56 73 58zM296 141h-177l-27 -141h-72l134 700h113l134 -700h-78zM206 612l-77 -404h156z" />
    <glyph glyph-name="adieresis" unicode="&#xe4;" horiz-adv-x="422" 
d="M114 827h68v-90h-68v90zM238 827h68v-90h-68v90zM296 141h-177l-27 -141h-72l134 700h113l134 -700h-78zM206 612l-77 -404h156z" />
    <glyph glyph-name="aring" unicode="&#xe5;" horiz-adv-x="422" 
d="M210 883q31 0 52 -21t21 -52t-21 -52t-52 -21q-32 0 -53 21t-21 52t21.5 52t52.5 21zM210 846q-16 0 -26.5 -10.5t-10.5 -25.5q0 -16 10.5 -26t26.5 -10q15 0 25.5 10t10.5 26q0 15 -10.5 25.5t-25.5 10.5zM296 141h-177l-27 -141h-72l134 700h113l134 -700h-78zM206 612
l-77 -404h156z" />
    <glyph glyph-name="ae" unicode="&#xe6;" horiz-adv-x="585" 
d="M355 390h161v-70h-161v-249h198v-71h-275v142h-143l-45 -142h-74l218 700h319v-71h-198v-239zM278 602l-125 -392h125v392z" />
    <glyph glyph-name="ccedilla" unicode="&#xe7;" horiz-adv-x="380" 
d="M191 707q79 0 118.5 -47t39.5 -129v-63h-74v67q0 101 -82 101t-82 -101v-370q0 -101 82 -101t82 101v91h74v-87q0 -77 -35.5 -124t-105.5 -51v-31q35 0 54.5 -13.5t19.5 -37.5q0 -30 -25 -47t-70 -17q-43 0 -67.5 16.5t-24.5 45.5v8h51v-7q0 -26 41 -29q43 0 43 32
q0 30 -49 30h-9v50q-69 5 -103.5 51.5t-34.5 123.5v362q0 82 39.5 129t117.5 47z" />
    <glyph glyph-name="egrave" unicode="&#xe8;" horiz-adv-x="360" 
d="M86 845h81l69 -103h-57zM118 390h171v-70h-171v-249h210v-71h-288v700h288v-71h-210v-239z" />
    <glyph glyph-name="eacute" unicode="&#xe9;" horiz-adv-x="360" 
d="M206 842h77l-93 -103h-54zM118 390h171v-70h-171v-249h210v-71h-288v700h288v-71h-210v-239z" />
    <glyph glyph-name="ecircumflex" unicode="&#xea;" horiz-adv-x="360" 
d="M182 799l-52 -60h-68l86 101h69l87 -101h-68zM118 390h171v-70h-171v-249h210v-71h-288v700h288v-71h-210v-239z" />
    <glyph glyph-name="edieresis" unicode="&#xeb;" horiz-adv-x="360" 
d="M87 829h68v-90h-68v90zM211 829h68v-90h-68v90zM118 390h171v-70h-171v-249h210v-71h-288v700h288v-71h-210v-239z" />
    <glyph glyph-name="igrave" unicode="&#xec;" horiz-adv-x="158" 
d="M68 739l-93 103h81l70 -103h-58zM40 0v700h78v-700h-78z" />
    <glyph glyph-name="iacute" unicode="&#xed;" horiz-adv-x="158" 
d="M31 739l69 103h78l-93 -103h-54zM40 0v700h78v-700h-78z" />
    <glyph glyph-name="icircumflex" unicode="&#xee;" horiz-adv-x="158" 
d="M44 839h69l87 -100h-68l-53 59l-53 -59h-68zM40 0v700h78v-700h-78z" />
    <glyph glyph-name="idieresis" unicode="&#xef;" horiz-adv-x="158" 
d="M-17 829h68v-90h-68v90zM107 829h68v-90h-68v90zM40 700h78v-700h-78v700z" />
    <glyph glyph-name="eth" unicode="&#xf0;" horiz-adv-x="396" 
d="M40 700h164q80 0 119.5 -45.5t39.5 -128.5v-353q0 -82 -39.5 -127.5t-119.5 -45.5h-164v318h-39v63h39v319zM197 381v-63h-79v-247h85q83 0 83 99v360q0 99 -84 99h-84v-248h79z" />
    <glyph glyph-name="ntilde" unicode="&#xf1;" horiz-adv-x="409" 
d="M288 830l39 -26q-23 -58 -71 -58q-21 -1 -49.5 14t-42.5 15q-28 0 -42 -29l-39 26q23 58 74 58q21 0 49 -14.5t42 -14.5q26 0 40 29zM109 566v-566h-70v700h99l162 -506v506h69v-700h-81z" />
    <glyph glyph-name="ograve" unicode="&#xf2;" horiz-adv-x="389" 
d="M93 845h81l69 -103h-57zM194 707q79 0 120 -47t41 -129v-362q0 -82 -41 -129t-120 -47q-78 0 -119 47t-41 129v362q0 82 40.5 129t119.5 47zM194 636q-83 0 -83 -101v-370q0 -101 83 -101t83 101v370q0 101 -83 101z" />
    <glyph glyph-name="oacute" unicode="&#xf3;" horiz-adv-x="389" 
d="M216 845h77l-93 -103h-54zM194 707q79 0 120 -47t41 -129v-362q0 -82 -41 -129t-120 -47q-78 0 -119 47t-41 129v362q0 82 40.5 129t119.5 47zM194 636q-83 0 -83 -101v-370q0 -101 83 -101t83 101v370q0 101 -83 101z" />
    <glyph glyph-name="ocircumflex" unicode="&#xf4;" horiz-adv-x="389" 
d="M193 800l-52 -59h-68l86 101h69l87 -101h-68zM194 707q79 0 120 -47t41 -129v-362q0 -82 -41 -129t-120 -47q-78 0 -119 47t-41 129v362q0 82 40.5 129t119.5 47zM194 636q-83 0 -83 -101v-370q0 -101 83 -101t83 101v370q0 101 -83 101z" />
    <glyph glyph-name="otilde" unicode="&#xf5;" horiz-adv-x="389" 
d="M280 829l38 -27q-21 -57 -71 -57q-21 -1 -49.5 14t-42.5 15q-27 0 -42 -30l-39 27q23 56 74 58q21 0 49.5 -15t42.5 -15q25 1 40 30zM194 707q79 0 120 -47t41 -129v-362q0 -82 -41 -129t-120 -47q-78 0 -119 47t-41 129v362q0 82 40.5 129t119.5 47zM194 636
q-83 0 -83 -101v-370q0 -101 83 -101t83 101v370q0 101 -83 101z" />
    <glyph glyph-name="odieresis" unicode="&#xf6;" horiz-adv-x="389" 
d="M98 831h68v-90h-68v90zM222 831h68v-90h-68v90zM194 707q79 0 120 -47t41 -129v-362q0 -82 -41 -129t-120 -47q-78 0 -119 47t-41 129v362q0 82 40.5 129t119.5 47zM194 636q-83 0 -83 -101v-370q0 -101 83 -101t83 101v370q0 101 -83 101z" />
    <glyph glyph-name="divide" unicode="&#xf7;" horiz-adv-x="350" 
d="M137 527h75v-97h-75v97zM30 378h290v-56h-290v56zM137 270h75v-97h-75v97z" />
    <glyph glyph-name="oslash" unicode="&#xf8;" horiz-adv-x="389" 
d="M350 712l-25 -66q30 -45 30 -115v-362q0 -82 -41 -129t-120 -47q-63 0 -102 31l-19 -50l-34 13l25 67q-30 45 -30 115v362q0 82 40.5 129t119.5 47q63 0 103 -31l18 49zM111 180l155 414q-20 42 -72 42q-83 0 -83 -101v-355zM194 64q83 0 83 101v353l-155 -413
q20 -41 72 -41z" />
    <glyph glyph-name="ugrave" unicode="&#xf9;" 
d="M92 842h81l70 -103h-58zM350 700v-531q0 -83 -39 -130t-118 -47q-78 0 -117 47.5t-39 129.5v531h77v-535q0 -101 82 -101q81 0 81 101v535h73z" />
    <glyph glyph-name="uacute" unicode="&#xfa;" 
d="M219 845h77l-93 -103h-54zM350 700v-531q0 -83 -39 -130t-118 -47q-78 0 -117 47.5t-39 129.5v531h77v-535q0 -101 82 -101q81 0 81 101v535h73z" />
    <glyph glyph-name="ucircumflex" unicode="&#xfb;" 
d="M194 800l-52 -59h-68l86 101h69l87 -101h-68zM350 700v-531q0 -83 -39 -130t-118 -47q-78 0 -117 47.5t-39 129.5v531h77v-535q0 -101 82 -101q81 0 81 101v535h73z" />
    <glyph glyph-name="udieresis" unicode="&#xfc;" 
d="M98 830h69v-90h-69v90zM223 830h68v-90h-68v90zM350 700v-531q0 -83 -39 -130t-118 -47q-78 0 -117 47.5t-39 129.5v531h77v-535q0 -101 82 -101q81 0 81 101v535h73z" />
    <glyph glyph-name="yacute" unicode="&#xfd;" horiz-adv-x="406" 
d="M230 842h77l-93 -103h-54zM164 0v251l-148 449h81l109 -344l110 344h74l-149 -449v-251h-77z" />
    <glyph glyph-name="thorn" unicode="&#xfe;" horiz-adv-x="377" 
d="M118 599h75q157 0 157 -172v-83q0 -170 -163 -170h-69v-174h-78v700h78v-101zM118 245h69q44 0 65 22t21 72v93q0 96 -80 96h-75v-283z" />
    <glyph glyph-name="ydieresis" unicode="&#xff;" horiz-adv-x="406" 
d="M109 829h68v-90h-68v90zM233 829h68v-90h-68v90zM164 0v251l-148 449h81l109 -344l110 344h74l-149 -449v-251h-77z" />
    <glyph glyph-name="Amacron" unicode="&#x100;" horiz-adv-x="422" 
d="M104 806h212v-56h-212v56zM296 141h-177l-27 -141h-72l134 700h113l134 -700h-78zM206 612l-77 -404h156z" />
    <glyph glyph-name="amacron" unicode="&#x101;" horiz-adv-x="422" 
d="M104 806h212v-56h-212v56zM296 141h-177l-27 -141h-72l134 700h113l134 -700h-78zM206 612l-77 -404h156z" />
    <glyph glyph-name="Abreve" unicode="&#x102;" horiz-adv-x="422" 
d="M267 834h47q0 -47 -28 -74t-77 -27q-48 0 -75 27t-28 74h47q3 -52 56 -52q55 0 58 52zM296 141h-177l-27 -141h-72l134 700h113l134 -700h-78zM206 612l-77 -404h156z" />
    <glyph glyph-name="abreve" unicode="&#x103;" horiz-adv-x="422" 
d="M267 834h47q0 -47 -28 -74t-77 -27q-48 0 -75 27t-28 74h47q3 -52 56 -52q55 0 58 52zM296 141h-177l-27 -141h-72l134 700h113l134 -700h-78zM206 612l-77 -404h156z" />
    <glyph glyph-name="Aogonek" unicode="&#x104;" horiz-adv-x="422" 
d="M401 0h-28q-38 -32 -36 -69q1 -30 37 -30q20 0 40 9v-41q-27 -12 -62 -12q-34 0 -54 14t-21 42q-2 45 48 80l-29 148h-177l-27 -141h-72l134 700h113zM206 612l-77 -404h156z" />
    <glyph glyph-name="aogonek" unicode="&#x105;" horiz-adv-x="422" 
d="M401 0h-28q-38 -32 -36 -69q1 -30 37 -30q20 0 40 9v-41q-27 -12 -62 -12q-34 0 -54 14t-21 42q-2 45 48 80l-29 148h-177l-27 -141h-72l134 700h113zM206 612l-77 -404h156z" />
    <glyph glyph-name="Cacute" unicode="&#x106;" horiz-adv-x="380" 
d="M215 845h78l-93 -103h-55zM191 707q79 0 118.5 -47t39.5 -129v-63h-74v67q0 101 -82 101t-82 -101v-370q0 -101 82 -101t82 101v91h74v-87q0 -82 -39.5 -129t-118.5 -47q-78 0 -117.5 47t-39.5 129v362q0 82 39.5 129t117.5 47z" />
    <glyph glyph-name="cacute" unicode="&#x107;" horiz-adv-x="380" 
d="M215 845h78l-93 -103h-55zM191 707q79 0 118.5 -47t39.5 -129v-63h-74v67q0 101 -82 101t-82 -101v-370q0 -101 82 -101t82 101v91h74v-87q0 -82 -39.5 -129t-118.5 -47q-78 0 -117.5 47t-39.5 129v362q0 82 39.5 129t117.5 47z" />
    <glyph glyph-name="Ccircumflex" unicode="&#x108;" horiz-adv-x="380" 
d="M193 799l-53 -59h-68l86 101h69l87 -101h-68zM191 707q79 0 118.5 -47t39.5 -129v-63h-74v67q0 101 -82 101t-82 -101v-370q0 -101 82 -101t82 101v91h74v-87q0 -82 -39.5 -129t-118.5 -47q-78 0 -117.5 47t-39.5 129v362q0 82 39.5 129t117.5 47z" />
    <glyph glyph-name="ccircumflex" unicode="&#x109;" horiz-adv-x="380" 
d="M193 799l-53 -59h-68l86 101h69l87 -101h-68zM191 707q79 0 118.5 -47t39.5 -129v-63h-74v67q0 101 -82 101t-82 -101v-370q0 -101 82 -101t82 101v91h74v-87q0 -82 -39.5 -129t-118.5 -47q-78 0 -117.5 47t-39.5 129v362q0 82 39.5 129t117.5 47z" />
    <glyph glyph-name="Cdotaccent" unicode="&#x10a;" horiz-adv-x="380" 
d="M157 828h68v-90h-68v90zM191 707q79 0 118.5 -47t39.5 -129v-63h-74v67q0 101 -82 101t-82 -101v-370q0 -101 82 -101t82 101v91h74v-87q0 -82 -39.5 -129t-118.5 -47q-78 0 -117.5 47t-39.5 129v362q0 82 39.5 129t117.5 47z" />
    <glyph glyph-name="cdotaccent" unicode="&#x10b;" horiz-adv-x="380" 
d="M157 828h68v-90h-68v90zM191 707q79 0 118.5 -47t39.5 -129v-63h-74v67q0 101 -82 101t-82 -101v-370q0 -101 82 -101t82 101v91h74v-87q0 -82 -39.5 -129t-118.5 -47q-78 0 -117.5 47t-39.5 129v362q0 82 39.5 129t117.5 47z" />
    <glyph glyph-name="Ccaron" unicode="&#x10c;" horiz-adv-x="380" 
d="M73 841h68l52 -60l53 60h69l-87 -100h-69zM191 707q79 0 118.5 -47t39.5 -129v-63h-74v67q0 101 -82 101t-82 -101v-370q0 -101 82 -101t82 101v91h74v-87q0 -82 -39.5 -129t-118.5 -47q-78 0 -117.5 47t-39.5 129v362q0 82 39.5 129t117.5 47z" />
    <glyph glyph-name="ccaron" unicode="&#x10d;" horiz-adv-x="380" 
d="M73 841h68l52 -60l53 60h69l-87 -100h-69zM191 707q79 0 118.5 -47t39.5 -129v-63h-74v67q0 101 -82 101t-82 -101v-370q0 -101 82 -101t82 101v91h74v-87q0 -82 -39.5 -129t-118.5 -47q-78 0 -117.5 47t-39.5 129v362q0 82 39.5 129t117.5 47z" />
    <glyph glyph-name="Dcaron" unicode="&#x10e;" horiz-adv-x="396" 
d="M67 839h68l53 -60l53 60h69l-87 -100h-69zM40 700h164q80 0 119.5 -45.5t39.5 -128.5v-353q0 -82 -39.5 -127.5t-119.5 -45.5h-164v700zM118 71h85q83 0 83 99v360q0 99 -84 99h-84v-558z" />
    <glyph glyph-name="dcaron" unicode="&#x10f;" horiz-adv-x="396" 
d="M67 839h68l53 -60l53 60h69l-87 -100h-69zM40 700h164q80 0 119.5 -45.5t39.5 -128.5v-353q0 -82 -39.5 -127.5t-119.5 -45.5h-164v700zM118 71h85q83 0 83 99v360q0 99 -84 99h-84v-558z" />
    <glyph glyph-name="Dcroat" unicode="&#x110;" horiz-adv-x="396" 
d="M40 700h164q80 0 119.5 -45.5t39.5 -128.5v-353q0 -82 -39.5 -127.5t-119.5 -45.5h-164v318h-39v63h39v319zM197 381v-63h-79v-247h85q83 0 83 99v360q0 99 -84 99h-84v-248h79z" />
    <glyph glyph-name="dcroat" unicode="&#x111;" horiz-adv-x="396" 
d="M40 700h164q80 0 119.5 -45.5t39.5 -128.5v-353q0 -82 -39.5 -127.5t-119.5 -45.5h-164v318h-39v63h39v319zM197 381v-63h-79v-247h85q83 0 83 99v360q0 99 -84 99h-84v-248h79z" />
    <glyph glyph-name="Emacron" unicode="&#x112;" horiz-adv-x="360" 
d="M77 807h209v-55h-209v55zM118 390h171v-70h-171v-249h210v-71h-288v700h288v-71h-210v-239z" />
    <glyph glyph-name="emacron" unicode="&#x113;" horiz-adv-x="360" 
d="M77 807h209v-55h-209v55zM118 390h171v-70h-171v-249h210v-71h-288v700h288v-71h-210v-239z" />
    <glyph glyph-name="Ebreve" unicode="&#x114;" horiz-adv-x="360" 
d="M240 840h47q-1 -47 -29 -74t-77 -27q-48 0 -75 27t-28 74h47q3 -52 56 -52q55 0 59 52zM118 390h171v-70h-171v-249h210v-71h-288v700h288v-71h-210v-239z" />
    <glyph glyph-name="ebreve" unicode="&#x115;" horiz-adv-x="360" 
d="M240 840h47q-1 -47 -29 -74t-77 -27q-48 0 -75 27t-28 74h47q3 -52 56 -52q55 0 59 52zM118 390h171v-70h-171v-249h210v-71h-288v700h288v-71h-210v-239z" />
    <glyph glyph-name="Edotaccent" unicode="&#x116;" horiz-adv-x="360" 
d="M150 830h68v-90h-68v90zM118 390h171v-70h-171v-249h210v-71h-288v700h288v-71h-210v-239z" />
    <glyph glyph-name="edotaccent" unicode="&#x117;" horiz-adv-x="360" 
d="M150 830h68v-90h-68v90zM118 390h171v-70h-171v-249h210v-71h-288v700h288v-71h-210v-239z" />
    <glyph glyph-name="Eogonek" unicode="&#x118;" horiz-adv-x="360" 
d="M118 390h171v-70h-171v-249h210v-71h-33q-37 -30 -37 -69q1 -30 38 -30q19 0 39 9v-41q-27 -12 -61 -12q-75 0 -76 56q0 49 61 87h-219v700h288v-71h-210v-239z" />
    <glyph glyph-name="eogonek" unicode="&#x119;" horiz-adv-x="360" 
d="M118 390h171v-70h-171v-249h210v-71h-33q-37 -30 -37 -69q1 -30 38 -30q19 0 39 9v-41q-27 -12 -61 -12q-75 0 -76 56q0 49 61 87h-219v700h288v-71h-210v-239z" />
    <glyph glyph-name="Ecaron" unicode="&#x11a;" horiz-adv-x="360" 
d="M63 839h68l52 -60l54 60h68l-87 -100h-69zM118 390h171v-70h-171v-249h210v-71h-288v700h288v-71h-210v-239z" />
    <glyph glyph-name="ecaron" unicode="&#x11b;" horiz-adv-x="360" 
d="M63 839h68l52 -60l54 60h68l-87 -100h-69zM118 390h171v-70h-171v-249h210v-71h-288v700h288v-71h-210v-239z" />
    <glyph glyph-name="Gcircumflex" unicode="&#x11c;" horiz-adv-x="383" 
d="M191 801l-52 -59h-68l86 100h69l87 -100h-68zM191 707q79 0 118.5 -47t39.5 -129v-60h-74v64q0 101 -82 101t-82 -101v-370q0 -101 82 -101t82 101v140h-72v70h146v-206q0 -82 -39.5 -129t-118.5 -47q-78 0 -117.5 47t-39.5 129v362q0 82 39.5 129t117.5 47z" />
    <glyph glyph-name="gcircumflex" unicode="&#x11d;" horiz-adv-x="383" 
d="M191 801l-52 -59h-68l86 100h69l87 -100h-68zM191 707q79 0 118.5 -47t39.5 -129v-60h-74v64q0 101 -82 101t-82 -101v-370q0 -101 82 -101t82 101v140h-72v70h146v-206q0 -82 -39.5 -129t-118.5 -47q-78 0 -117.5 47t-39.5 129v362q0 82 39.5 129t117.5 47z" />
    <glyph glyph-name="Gbreve" unicode="&#x11e;" horiz-adv-x="383" 
d="M249 841h47q-1 -47 -28.5 -74t-76.5 -27t-76 27t-28 74h47q4 -52 57 -52q54 0 58 52zM191 707q79 0 118.5 -47t39.5 -129v-60h-74v64q0 101 -82 101t-82 -101v-370q0 -101 82 -101t82 101v140h-72v70h146v-206q0 -82 -39.5 -129t-118.5 -47q-78 0 -117.5 47t-39.5 129
v362q0 82 39.5 129t117.5 47z" />
    <glyph glyph-name="gbreve" unicode="&#x11f;" horiz-adv-x="383" 
d="M249 841h47q-1 -47 -28.5 -74t-76.5 -27t-76 27t-28 74h47q4 -52 57 -52q54 0 58 52zM191 707q79 0 118.5 -47t39.5 -129v-60h-74v64q0 101 -82 101t-82 -101v-370q0 -101 82 -101t82 101v140h-72v70h146v-206q0 -82 -39.5 -129t-118.5 -47q-78 0 -117.5 47t-39.5 129
v362q0 82 39.5 129t117.5 47z" />
    <glyph glyph-name="Gdotaccent" unicode="&#x120;" horiz-adv-x="383" 
d="M160 830h68v-90h-68v90zM191 707q79 0 118.5 -47t39.5 -129v-60h-74v64q0 101 -82 101t-82 -101v-370q0 -101 82 -101t82 101v140h-72v70h146v-206q0 -82 -39.5 -129t-118.5 -47q-78 0 -117.5 47t-39.5 129v362q0 82 39.5 129t117.5 47z" />
    <glyph glyph-name="gdotaccent" unicode="&#x121;" horiz-adv-x="383" 
d="M160 830h68v-90h-68v90zM191 707q79 0 118.5 -47t39.5 -129v-60h-74v64q0 101 -82 101t-82 -101v-370q0 -101 82 -101t82 101v140h-72v70h146v-206q0 -82 -39.5 -129t-118.5 -47q-78 0 -117.5 47t-39.5 129v362q0 82 39.5 129t117.5 47z" />
    <glyph glyph-name="uni0122" unicode="&#x122;" horiz-adv-x="383" 
d="M191 707q79 0 118.5 -47t39.5 -129v-60h-74v64q0 101 -82 101t-82 -101v-370q0 -101 82 -101t82 101v140h-72v70h146v-206q0 -82 -39.5 -129t-118.5 -47q-78 0 -117.5 47t-39.5 129v362q0 82 39.5 129t117.5 47zM160 -177l23 56h-25v88h66v-81l-35 -63h-29z" />
    <glyph glyph-name="uni0123" unicode="&#x123;" horiz-adv-x="383" 
d="M191 707q79 0 118.5 -47t39.5 -129v-60h-74v64q0 101 -82 101t-82 -101v-370q0 -101 82 -101t82 101v140h-72v70h146v-206q0 -82 -39.5 -129t-118.5 -47q-78 0 -117.5 47t-39.5 129v362q0 82 39.5 129t117.5 47zM161 -177l22 56h-24v88h65v-81l-35 -63h-28z" />
    <glyph glyph-name="Hcircumflex" unicode="&#x124;" horiz-adv-x="408" 
d="M204 800l-53 -59h-68l87 101h69l86 -101h-68zM290 315h-172v-315h-78v700h78v-315h172v315h78v-700h-78v315z" />
    <glyph glyph-name="hcircumflex" unicode="&#x125;" horiz-adv-x="408" 
d="M204 800l-53 -59h-68l87 101h69l86 -101h-68zM290 315h-172v-315h-78v700h78v-315h172v315h78v-700h-78v315z" />
    <glyph glyph-name="Hbar" unicode="&#x126;" horiz-adv-x="415" 
d="M408 514h-36v-514h-79v315h-172v-315h-78v514h-36v58h36v128h78v-128h172v128h79v-128h36v-58zM293 385v129h-172v-129h172z" />
    <glyph glyph-name="hbar" unicode="&#x127;" horiz-adv-x="415" 
d="M408 514h-36v-514h-79v315h-172v-315h-78v514h-36v58h36v128h78v-128h172v128h79v-128h36v-58zM293 385v129h-172v-129h172z" />
    <glyph glyph-name="Itilde" unicode="&#x128;" horiz-adv-x="158" 
d="M163 828l38 -26q-22 -58 -71 -58q-20 0 -48.5 14.5t-43.5 14.5q-28 0 -42 -29l-39 26q24 58 74 58q21 0 49.5 -14.5t42.5 -14.5q25 0 40 29zM40 700h78v-700h-78v700z" />
    <glyph glyph-name="itilde" unicode="&#x129;" horiz-adv-x="158" 
d="M163 828l38 -26q-22 -58 -71 -58q-20 0 -48.5 14.5t-43.5 14.5q-28 0 -42 -29l-39 26q24 58 74 58q21 0 49.5 -14.5t42.5 -14.5q25 0 40 29zM40 700h78v-700h-78v700z" />
    <glyph glyph-name="Imacron" unicode="&#x12a;" horiz-adv-x="158" 
d="M-21 806h199v-56h-199v56zM40 700h78v-700h-78v700z" />
    <glyph glyph-name="imacron" unicode="&#x12b;" horiz-adv-x="158" 
d="M-21 806h199v-56h-199v56zM40 700h78v-700h-78v700z" />
    <glyph glyph-name="Ibreve" unicode="&#x12c;" horiz-adv-x="158" 
d="M136 838h47q0 -47 -28 -74.5t-77 -27.5q-48 0 -75 27t-28 75h47q3 -53 56 -53q54 0 58 53zM40 0v700h78v-700h-78z" />
    <glyph glyph-name="ibreve" unicode="&#x12d;" horiz-adv-x="158" 
d="M136 838h47q0 -47 -28 -74.5t-77 -27.5q-48 0 -75 27t-28 75h47q3 -53 56 -53q54 0 58 53zM40 0v700h78v-700h-78z" />
    <glyph glyph-name="Iogonek" unicode="&#x12e;" horiz-adv-x="158" 
d="M118 0h-14q-18 -14 -27.5 -34t-8.5 -35q0 -30 37 -30q18 0 40 9v-41q-27 -12 -62 -12q-34 0 -54.5 14t-20.5 42q-2 49 61 87h-29v700h78v-700z" />
    <glyph glyph-name="iogonek" unicode="&#x12f;" horiz-adv-x="158" 
d="M118 0h-14q-18 -14 -27.5 -34t-8.5 -35q0 -30 37 -30q18 0 40 9v-41q-27 -12 -62 -12q-34 0 -54.5 14t-20.5 42q-2 49 61 87h-29v700h78v-700z" />
    <glyph glyph-name="Idotaccent" unicode="&#x130;" horiz-adv-x="158" 
d="M45 829h68v-90h-68v90zM40 700h78v-700h-78v700z" />
    <glyph glyph-name="dotlessi" unicode="&#x131;" horiz-adv-x="158" 
d="M40 700h78v-700h-78v700z" />
    <glyph glyph-name="IJ" unicode="&#x132;" horiz-adv-x="412" 
d="M40 700h78v-700h-78v700zM376 700v-527q0 -170 -151 -174q-31 0 -48 1v71q13 -1 38 -1q42 2 62.5 24.5t20.5 73.5v532h78z" />
    <glyph glyph-name="ij" unicode="&#x133;" horiz-adv-x="412" 
d="M40 700h78v-700h-78v700zM376 700v-527q0 -170 -151 -174q-31 0 -48 1v71q13 -1 38 -1q42 2 62.5 24.5t20.5 73.5v532h78z" />
    <glyph glyph-name="Jcircumflex" unicode="&#x134;" horiz-adv-x="255" 
d="M167 799l-53 -60h-68l86 101h69l87 -101h-68zM218 700v-527q0 -170 -149 -174q-41 0 -49 1v71q13 -1 39 -1q41 2 61.5 24.5t20.5 73.5v532h77z" />
    <glyph glyph-name="jcircumflex" unicode="&#x135;" horiz-adv-x="255" 
d="M167 799l-53 -60h-68l86 101h69l87 -101h-68zM218 700v-527q0 -170 -149 -174q-41 0 -49 1v71q13 -1 39 -1q41 2 61.5 24.5t20.5 73.5v532h77z" />
    <glyph glyph-name="uni0136" unicode="&#x136;" horiz-adv-x="409" 
d="M309 0l-150 304l-41 -69v-235h-78v700h78v-338l186 338h79l-177 -319l183 -381h-80zM174 -177l23 56h-25v88h66v-81l-35 -63h-29z" />
    <glyph glyph-name="uni0137" unicode="&#x137;" horiz-adv-x="409" 
d="M309 0l-150 304l-41 -69v-235h-78v700h78v-338l186 338h79l-177 -319l183 -381h-80zM174 -177l23 56h-25v88h66v-81l-35 -63h-29z" />
    <glyph glyph-name="kgreenlandic" unicode="&#x138;" horiz-adv-x="409" 
d="M309 0l-150 304l-41 -69v-235h-78v700h78v-338l186 338h79l-177 -319l183 -381h-80z" />
    <glyph glyph-name="Lacute" unicode="&#x139;" horiz-adv-x="337" 
d="M129 842h77l-93 -103h-54zM318 0h-278v700h78v-629h200v-71z" />
    <glyph glyph-name="lacute" unicode="&#x13a;" horiz-adv-x="337" 
d="M125 842h78l-93 -103h-54zM318 0h-278v700h78v-629h200v-71z" />
    <glyph glyph-name="uni013B" unicode="&#x13b;" horiz-adv-x="337" 
d="M318 0h-278v700h78v-629h200v-71zM151 -179l23 57h-25v87h66v-81l-35 -63h-29z" />
    <glyph glyph-name="uni013C" unicode="&#x13c;" horiz-adv-x="337" 
d="M318 0h-278v700h78v-629h200v-71zM155 -177l22 56h-24v88h65v-81l-35 -63h-28z" />
    <glyph glyph-name="Lcaron" unicode="&#x13d;" horiz-adv-x="337" 
d="M318 0h-278v700h78v-629h200v-71zM217 515l25 88h-29v97h75v-89l-38 -96h-33z" />
    <glyph glyph-name="lcaron" unicode="&#x13e;" horiz-adv-x="337" 
d="M318 0h-278v700h78v-629h200v-71zM217 515l25 88h-29v97h75v-89l-38 -96h-33z" />
    <glyph glyph-name="Ldot" unicode="&#x13f;" horiz-adv-x="337" 
d="M318 0h-278v700h78v-629h200v-71zM197 400h75v-97h-75v97z" />
    <glyph glyph-name="ldot" unicode="&#x140;" horiz-adv-x="337" 
d="M318 0h-278v700h78v-629h200v-71zM197 400h75v-97h-75v97z" />
    <glyph glyph-name="Lslash" unicode="&#x141;" horiz-adv-x="348" 
d="M237 404l-109 -113v-220h201v-71h-278v208l-51 -50v72l51 50v420h77v-337l109 113v-72z" />
    <glyph glyph-name="lslash" unicode="&#x142;" horiz-adv-x="187" 
d="M182 342l-49 -51v-291h-77v208l-51 -50v72l51 50v420h77v-337l49 51v-72z" />
    <glyph glyph-name="Nacute" unicode="&#x143;" horiz-adv-x="409" 
d="M229 842h77l-93 -102h-54zM109 567v-567h-70v700h99l162 -506v506h69v-700h-81z" />
    <glyph glyph-name="nacute" unicode="&#x144;" horiz-adv-x="409" 
d="M229 842h77l-93 -102h-54zM109 567v-567h-70v700h99l162 -506v506h69v-700h-81z" />
    <glyph glyph-name="uni0145" unicode="&#x145;" horiz-adv-x="409" 
d="M109 566v-566h-70v700h99l162 -506v506h69v-700h-81zM173 -177l23 56h-25v88h65v-81l-35 -63h-28z" />
    <glyph glyph-name="uni0146" unicode="&#x146;" horiz-adv-x="409" 
d="M109 566v-566h-70v700h99l162 -506v506h69v-700h-81zM173 -177l23 56h-25v88h65v-81l-35 -63h-28z" />
    <glyph glyph-name="Ncaron" unicode="&#x147;" horiz-adv-x="409" 
d="M84 842h68l53 -60l53 60h68l-86 -101h-69zM109 566v-566h-70v700h99l162 -506v506h69v-700h-81z" />
    <glyph glyph-name="ncaron" unicode="&#x148;" horiz-adv-x="409" 
d="M84 842h68l53 -60l53 60h68l-86 -101h-69zM109 566v-566h-70v700h99l162 -506v506h69v-700h-81z" />
    <glyph glyph-name="napostrophe" unicode="&#x149;" horiz-adv-x="503" 
d="M15 515l25 88h-29v97h75v-89l-38 -96h-33zM204 566v-566h-70v700h99l162 -506v506h69v-700h-81z" />
    <glyph glyph-name="Omacron" unicode="&#x14c;" horiz-adv-x="389" 
d="M91 806h208v-55h-208v55zM194 707q79 0 120 -47t41 -129v-362q0 -82 -41 -129t-120 -47q-78 0 -119 47t-41 129v362q0 82 40.5 129t119.5 47zM194 636q-83 0 -83 -101v-370q0 -101 83 -101t83 101v370q0 101 -83 101z" />
    <glyph glyph-name="omacron" unicode="&#x14d;" horiz-adv-x="389" 
d="M91 806h208v-55h-208v55zM194 707q79 0 120 -47t41 -129v-362q0 -82 -41 -129t-120 -47q-78 0 -119 47t-41 129v362q0 82 40.5 129t119.5 47zM194 636q-83 0 -83 -101v-370q0 -101 83 -101t83 101v370q0 101 -83 101z" />
    <glyph glyph-name="Obreve" unicode="&#x14e;" horiz-adv-x="389" 
d="M252 841h47q-1 -47 -29 -74t-77 -27q-48 0 -75 27t-28 74h47q3 -52 56 -52q55 0 59 52zM194 707q79 0 120 -47t41 -129v-362q0 -82 -41 -129t-120 -47q-78 0 -119 47t-41 129v362q0 82 40.5 129t119.5 47zM194 636q-83 0 -83 -101v-370q0 -101 83 -101t83 101v370
q0 101 -83 101z" />
    <glyph glyph-name="obreve" unicode="&#x14f;" horiz-adv-x="389" 
d="M252 841h47q-1 -47 -29 -74t-77 -27q-48 0 -75 27t-28 74h47q3 -52 56 -52q55 0 59 52zM194 707q79 0 120 -47t41 -129v-362q0 -82 -41 -129t-120 -47q-78 0 -119 47t-41 129v362q0 82 40.5 129t119.5 47zM194 636q-83 0 -83 -101v-370q0 -101 83 -101t83 101v370
q0 101 -83 101z" />
    <glyph glyph-name="Ohungarumlaut" unicode="&#x150;" horiz-adv-x="389" 
d="M158 845h72l-80 -103h-49zM265 845h73l-81 -103h-49zM194 707q79 0 120 -47t41 -129v-362q0 -82 -41 -129t-120 -47q-78 0 -119 47t-41 129v362q0 82 40.5 129t119.5 47zM194 636q-83 0 -83 -101v-370q0 -101 83 -101t83 101v370q0 101 -83 101z" />
    <glyph glyph-name="ohungarumlaut" unicode="&#x151;" horiz-adv-x="389" 
d="M158 845h72l-80 -103h-49zM265 845h73l-81 -103h-49zM194 707q79 0 120 -47t41 -129v-362q0 -82 -41 -129t-120 -47q-78 0 -119 47t-41 129v362q0 82 40.5 129t119.5 47zM194 636q-83 0 -83 -101v-370q0 -101 83 -101t83 101v370q0 101 -83 101z" />
    <glyph glyph-name="OE" unicode="&#x152;" horiz-adv-x="577" 
d="M347 390h161v-70h-161v-249h198v-71h-357q-78 0 -116.5 46t-38.5 128v352q0 82 38.5 128t116.5 46h357v-71h-198v-239zM270 629h-81q-78 0 -78 -99v-360q0 -99 78 -99h81v558z" />
    <glyph glyph-name="oe" unicode="&#x153;" horiz-adv-x="577" 
d="M347 390h161v-70h-161v-249h198v-71h-357q-78 0 -116.5 46t-38.5 128v352q0 82 38.5 128t116.5 46h357v-71h-198v-239zM270 629h-81q-78 0 -78 -99v-360q0 -99 78 -99h81v558z" />
    <glyph glyph-name="Racute" unicode="&#x154;" horiz-adv-x="394" 
d="M209 845h78l-93 -103h-54zM40 700h156q81 0 118.5 -40t37.5 -120v-57q0 -116 -87 -144q88 -26 88 -146v-109q0 -58 14 -84h-79q-13 29 -13 85v110q0 57 -25.5 80.5t-76.5 23.5h-55v-299h-78v700zM118 370h58q50 0 74.5 21t24.5 75v67q0 96 -81 96h-76v-259z" />
    <glyph glyph-name="racute" unicode="&#x155;" horiz-adv-x="394" 
d="M209 845h78l-93 -103h-54zM40 700h156q81 0 118.5 -40t37.5 -120v-57q0 -116 -87 -144q88 -26 88 -146v-109q0 -58 14 -84h-79q-13 29 -13 85v110q0 57 -25.5 80.5t-76.5 23.5h-55v-299h-78v700zM118 370h58q50 0 74.5 21t24.5 75v67q0 96 -81 96h-76v-259z" />
    <glyph glyph-name="uni0156" unicode="&#x156;" horiz-adv-x="394" 
d="M40 700h156q81 0 118.5 -40t37.5 -120v-57q0 -116 -87 -144q88 -26 88 -146v-109q0 -58 14 -84h-79q-13 29 -13 85v110q0 57 -25.5 80.5t-76.5 23.5h-55v-299h-78v700zM118 370h58q50 0 74.5 21t24.5 75v67q0 96 -81 96h-76v-259zM165 -177l23 57h-24v87h65v-81l-35 -63
h-29z" />
    <glyph glyph-name="uni0157" unicode="&#x157;" horiz-adv-x="394" 
d="M40 700h156q81 0 118.5 -40t37.5 -120v-57q0 -116 -87 -144q88 -26 88 -146v-109q0 -58 14 -84h-79q-13 29 -13 85v110q0 57 -25.5 80.5t-76.5 23.5h-55v-299h-78v700zM118 370h58q50 0 74.5 21t24.5 75v67q0 96 -81 96h-76v-259zM166 -177l23 56h-25v88h66v-81l-35 -63
h-29z" />
    <glyph glyph-name="Rcaron" unicode="&#x158;" horiz-adv-x="394" 
d="M65 842h68l53 -60l53 60h68l-87 -100h-69zM40 700h156q81 0 118.5 -40t37.5 -120v-57q0 -116 -87 -144q88 -26 88 -146v-109q0 -58 14 -84h-79q-13 29 -13 85v110q0 57 -25.5 80.5t-76.5 23.5h-55v-299h-78v700zM118 370h58q50 0 74.5 21t24.5 75v67q0 96 -81 96h-76
v-259z" />
    <glyph glyph-name="rcaron" unicode="&#x159;" horiz-adv-x="394" 
d="M65 842h68l53 -60l53 60h68l-87 -100h-69zM40 700h156q81 0 118.5 -40t37.5 -120v-57q0 -116 -87 -144q88 -26 88 -146v-109q0 -58 14 -84h-79q-13 29 -13 85v110q0 57 -25.5 80.5t-76.5 23.5h-55v-299h-78v700zM118 370h58q50 0 74.5 21t24.5 75v67q0 96 -81 96h-76
v-259z" />
    <glyph glyph-name="Sacute" unicode="&#x15a;" horiz-adv-x="372" 
d="M211 845h78l-93 -103h-54zM187 707q77 0 116.5 -46.5t39.5 -128.5v-19h-74v23q0 100 -80 100t-80 -99q0 -37 17.5 -68.5t43.5 -53l56.5 -48l56.5 -51t43.5 -63.5t17.5 -85q0 -82 -40 -128.5t-118 -46.5t-117.5 46.5t-39.5 128.5v40h73v-44q0 -100 82 -100t82 100
q0 32 -13 59t-33.5 48t-45.5 41l-50 42t-45.5 46t-33.5 58t-13 74q0 83 39 129t116 46z" />
    <glyph glyph-name="sacute" unicode="&#x15b;" horiz-adv-x="372" 
d="M211 845h78l-93 -103h-54zM187 707q77 0 116.5 -46.5t39.5 -128.5v-19h-74v23q0 100 -80 100t-80 -99q0 -37 17.5 -68.5t43.5 -53l56.5 -48l56.5 -51t43.5 -63.5t17.5 -85q0 -82 -40 -128.5t-118 -46.5t-117.5 46.5t-39.5 128.5v40h73v-44q0 -100 82 -100t82 100
q0 32 -13 59t-33.5 48t-45.5 41l-50 42t-45.5 46t-33.5 58t-13 74q0 83 39 129t116 46z" />
    <glyph glyph-name="Scircumflex" unicode="&#x15c;" horiz-adv-x="372" 
d="M188 800l-53 -59h-68l87 101h69l86 -101h-68zM187 707q77 0 116.5 -46.5t39.5 -128.5v-19h-74v23q0 100 -80 100t-80 -99q0 -37 17.5 -68.5t43.5 -53l56.5 -48l56.5 -51t43.5 -63.5t17.5 -85q0 -82 -40 -128.5t-118 -46.5t-117.5 46.5t-39.5 128.5v40h73v-44
q0 -100 82 -100t82 100q0 32 -13 59t-33.5 48t-45.5 41l-50 42t-45.5 46t-33.5 58t-13 74q0 83 39 129t116 46z" />
    <glyph glyph-name="scircumflex" unicode="&#x15d;" horiz-adv-x="372" 
d="M188 800l-53 -59h-68l87 101h69l86 -101h-68zM187 707q77 0 116.5 -46.5t39.5 -128.5v-19h-74v23q0 100 -80 100t-80 -99q0 -37 17.5 -68.5t43.5 -53l56.5 -48l56.5 -51t43.5 -63.5t17.5 -85q0 -82 -40 -128.5t-118 -46.5t-117.5 46.5t-39.5 128.5v40h73v-44
q0 -100 82 -100t82 100q0 32 -13 59t-33.5 48t-45.5 41l-50 42t-45.5 46t-33.5 58t-13 74q0 83 39 129t116 46z" />
    <glyph glyph-name="Scedilla" unicode="&#x15e;" horiz-adv-x="372" 
d="M201 -6v-31q35 0 54.5 -13.5t19.5 -37.5q0 -30 -25 -47t-70 -17q-43 0 -67.5 16.5t-24.5 45.5v8h51v-7q0 -26 41 -29q43 0 43 32q0 30 -49 30h-9v50q-136 12 -136 174v40h73v-44q0 -100 82 -100t82 100q0 32 -13 59t-33.5 48t-45.5 41l-50 42t-45.5 46t-33.5 58t-13 74
q0 83 39 129t116 46t116.5 -46.5t39.5 -128.5v-19h-74v23q0 100 -80 100t-80 -99q0 -37 17.5 -68.5t43.5 -53l56.5 -48l56.5 -51t43.5 -63.5t17.5 -85q0 -78 -36 -124t-107 -50z" />
    <glyph glyph-name="scedilla" unicode="&#x15f;" horiz-adv-x="372" 
d="M201 -6v-31q35 0 54.5 -13.5t19.5 -37.5q0 -30 -25 -47t-70 -17q-43 0 -67.5 16.5t-24.5 45.5v8h51v-7q0 -26 41 -29q43 0 43 32q0 30 -49 30h-9v50q-136 12 -136 174v40h73v-44q0 -100 82 -100t82 100q0 32 -13 59t-33.5 48t-45.5 41l-50 42t-45.5 46t-33.5 58t-13 74
q0 83 39 129t116 46t116.5 -46.5t39.5 -128.5v-19h-74v23q0 100 -80 100t-80 -99q0 -37 17.5 -68.5t43.5 -53l56.5 -48l56.5 -51t43.5 -63.5t17.5 -85q0 -78 -36 -124t-107 -50z" />
    <glyph glyph-name="Scaron" unicode="&#x160;" horiz-adv-x="372" 
d="M67 842h68l52 -60l53 60h69l-87 -100h-69zM187 707q77 0 116.5 -46.5t39.5 -128.5v-19h-74v23q0 100 -80 100t-80 -99q0 -37 17.5 -68.5t43.5 -53l56.5 -48l56.5 -51t43.5 -63.5t17.5 -85q0 -82 -40 -128.5t-118 -46.5t-117.5 46.5t-39.5 128.5v40h73v-44q0 -100 82 -100
t82 100q0 32 -13 59t-33.5 48t-45.5 41l-50 42t-45.5 46t-33.5 58t-13 74q0 83 39 129t116 46z" />
    <glyph glyph-name="scaron" unicode="&#x161;" horiz-adv-x="372" 
d="M66 842h68l53 -60l53 60h68l-87 -100h-69zM187 707q77 0 116.5 -46.5t39.5 -128.5v-19h-74v23q0 100 -80 100t-80 -99q0 -37 17.5 -68.5t43.5 -53l56.5 -48l56.5 -51t43.5 -63.5t17.5 -85q0 -82 -40 -128.5t-118 -46.5t-117.5 46.5t-39.5 128.5v40h73v-44q0 -100 82 -100
t82 100q0 32 -13 59t-33.5 48t-45.5 41l-50 42t-45.5 46t-33.5 58t-13 74q0 83 39 129t116 46z" />
    <glyph glyph-name="uni0162" unicode="&#x162;" horiz-adv-x="372" 
d="M225 0h-21v-38q30 0 48.5 -14.5t18.5 -41.5q0 -38 -25.5 -56.5t-62.5 -17.5q-35 0 -60.5 17t-25.5 49v8h47v-8q0 -29 38 -29q17 0 29 8.5t12 25.5q0 33 -47 33h-9v64h-20v629h-129v71h336v-71h-129v-629z" />
    <glyph glyph-name="uni0163" unicode="&#x163;" horiz-adv-x="372" 
d="M225 0h-21v-38q30 0 48.5 -14.5t18.5 -41.5q0 -38 -25.5 -56.5t-62.5 -17.5q-35 0 -60.5 17t-25.5 49v8h47v-8q0 -29 38 -29q17 0 29 8.5t12 25.5q0 33 -47 33h-9v64h-20v629h-129v71h336v-71h-129v-629z" />
    <glyph glyph-name="Tcaron" unicode="&#x164;" horiz-adv-x="372" 
d="M65 840h68l52 -60l54 60h68l-87 -101h-69zM225 0h-78v629h-129v71h336v-71h-129v-629z" />
    <glyph glyph-name="tcaron" unicode="&#x165;" horiz-adv-x="372" 
d="M65 840h68l52 -60l54 60h68l-87 -101h-69zM225 0h-78v629h-129v71h336v-71h-129v-629z" />
    <glyph glyph-name="Tbar" unicode="&#x166;" horiz-adv-x="372" 
d="M225 476h71v-58h-71v-418h-78v418h-71v58h71v153h-129v71h336v-71h-129v-153z" />
    <glyph glyph-name="tbar" unicode="&#x167;" horiz-adv-x="372" 
d="M225 476h71v-58h-71v-418h-78v418h-71v58h71v153h-129v71h336v-71h-129v-153z" />
    <glyph glyph-name="Utilde" unicode="&#x168;" 
d="M278 829l39 -27q-23 -57 -72 -57q-21 -1 -49 14t-42 15q-27 0 -42 -30l-39 27q22 56 73 58q21 0 49.5 -15t42.5 -15q26 2 40 30zM350 700v-531q0 -83 -39 -130t-118 -47q-78 0 -117 47.5t-39 129.5v531h77v-535q0 -101 82 -101q81 0 81 101v535h73z" />
    <glyph glyph-name="utilde" unicode="&#x169;" 
d="M278 829l39 -27q-23 -57 -72 -57q-21 -1 -49 14t-42 15q-27 0 -42 -30l-39 27q22 56 73 58q21 0 49.5 -15t42.5 -15q26 2 40 30zM350 700v-531q0 -83 -39 -130t-118 -47q-78 0 -117 47.5t-39 129.5v531h77v-535q0 -101 82 -101q81 0 81 101v535h73z" />
    <glyph glyph-name="Umacron" unicode="&#x16a;" 
d="M93 806h205v-56h-205v56zM350 700v-531q0 -83 -39 -130t-118 -47q-78 0 -117 47.5t-39 129.5v531h77v-535q0 -101 82 -101q81 0 81 101v535h73z" />
    <glyph glyph-name="umacron" unicode="&#x16b;" 
d="M93 806h205v-56h-205v56zM350 700v-531q0 -83 -39 -130t-118 -47q-78 0 -117 47.5t-39 129.5v531h77v-535q0 -101 82 -101q81 0 81 101v535h73z" />
    <glyph glyph-name="Ubreve" unicode="&#x16c;" 
d="M252 838h47q-1 -47 -28.5 -74.5t-76.5 -27.5q-48 0 -75.5 27t-28.5 75h47q4 -53 57 -53q54 0 58 53zM350 700v-531q0 -83 -39 -130t-118 -47q-78 0 -117 47.5t-39 129.5v531h77v-535q0 -101 82 -101q81 0 81 101v535h73z" />
    <glyph glyph-name="ubreve" unicode="&#x16d;" 
d="M252 838h47q-1 -47 -28.5 -74.5t-76.5 -27.5q-48 0 -75.5 27t-28.5 75h47q4 -53 57 -53q54 0 58 53zM350 700v-531q0 -83 -39 -130t-118 -47q-78 0 -117 47.5t-39 129.5v531h77v-535q0 -101 82 -101q81 0 81 101v535h73z" />
    <glyph glyph-name="Uring" unicode="&#x16e;" 
d="M196 881q31 0 52.5 -21t21.5 -52t-21.5 -52t-52.5 -21t-52 21t-21 52t21 52t52 21zM196 844q-15 0 -25.5 -10t-10.5 -26t10.5 -26t25.5 -10t26 10.5t11 25.5t-11 25.5t-26 10.5zM350 700v-531q0 -83 -39 -130t-118 -47q-78 0 -117 47.5t-39 129.5v531h77v-535
q0 -101 82 -101q81 0 81 101v535h73z" />
    <glyph glyph-name="uring" unicode="&#x16f;" 
d="M196 881q31 0 52.5 -21t21.5 -52t-21.5 -52t-52.5 -21t-52 21t-21 52t21 52t52 21zM196 844q-15 0 -25.5 -10t-10.5 -26t10.5 -26t25.5 -10t26 10.5t11 25.5t-11 25.5t-26 10.5zM350 700v-531q0 -83 -39 -130t-118 -47q-78 0 -117 47.5t-39 129.5v531h77v-535
q0 -101 82 -101q81 0 81 101v535h73z" />
    <glyph glyph-name="Uhungarumlaut" unicode="&#x170;" 
d="M157 844h72l-80 -103h-49zM264 844h73l-81 -103h-48zM350 700v-531q0 -83 -39 -130t-118 -47q-78 0 -117 47.5t-39 129.5v531h77v-535q0 -101 82 -101q81 0 81 101v535h73z" />
    <glyph glyph-name="uhungarumlaut" unicode="&#x171;" 
d="M157 844h72l-80 -103h-49zM264 844h73l-81 -103h-48zM350 700v-531q0 -83 -39 -130t-118 -47q-78 0 -117 47.5t-39 129.5v531h77v-535q0 -101 82 -101q81 0 81 101v535h73z" />
    <glyph glyph-name="Uogonek" unicode="&#x172;" 
d="M350 700v-531q0 -121 -75 -164q-19 -15 -29.5 -36.5t-9.5 -37.5q0 -30 37 -30q20 0 40 9v-41q-27 -12 -62 -12q-34 0 -54.5 14t-20.5 42q-2 45 53 83q-15 -4 -36 -4q-78 0 -117 47.5t-39 129.5v531h77v-535q0 -101 82 -101q81 0 81 101v535h73z" />
    <glyph glyph-name="uogonek" unicode="&#x173;" 
d="M350 700v-531q0 -121 -75 -164q-19 -15 -29.5 -36.5t-9.5 -37.5q0 -30 37 -30q20 0 40 9v-41q-27 -12 -62 -12q-34 0 -54.5 14t-20.5 42q-2 45 53 83q-15 -4 -36 -4q-78 0 -117 47.5t-39 129.5v531h77v-535q0 -101 82 -101q81 0 81 101v535h73z" />
    <glyph glyph-name="Wcircumflex" unicode="&#x174;" horiz-adv-x="583" 
d="M293 799l-53 -59h-68l86 101h69l87 -101h-68zM295 475l-69 -475h-107l-96 700h76l82 -596l78 595h77l77 -596l79 597h68l-95 -700h-103z" />
    <glyph glyph-name="wcircumflex" unicode="&#x175;" horiz-adv-x="583" 
d="M293 799l-53 -59h-68l86 101h69l87 -101h-68zM295 475l-69 -475h-107l-96 700h76l82 -596l78 595h77l77 -596l79 597h68l-95 -700h-103z" />
    <glyph glyph-name="Ycircumflex" unicode="&#x176;" horiz-adv-x="406" 
d="M206 799l-53 -59h-68l86 100h69l87 -100h-68zM164 0v251l-148 449h81l109 -344l110 344h74l-149 -449v-251h-77z" />
    <glyph glyph-name="ycircumflex" unicode="&#x177;" horiz-adv-x="406" 
d="M206 799l-53 -59h-68l86 100h69l87 -100h-68zM164 0v251l-148 449h81l109 -344l110 344h74l-149 -449v-251h-77z" />
    <glyph glyph-name="Ydieresis" unicode="&#x178;" horiz-adv-x="406" 
d="M109 829h68v-90h-68v90zM233 829h68v-90h-68v90zM164 0v251l-148 449h81l109 -344l110 344h74l-149 -449v-251h-77z" />
    <glyph glyph-name="Zacute" unicode="&#x179;" horiz-adv-x="379" 
d="M219 845h78l-93 -103h-54zM347 71v-71h-318v70l240 559h-229v71h309v-70l-241 -559h239z" />
    <glyph glyph-name="zacute" unicode="&#x17a;" horiz-adv-x="379" 
d="M219 845h78l-93 -103h-54zM347 71v-71h-318v70l240 559h-229v71h309v-70l-241 -559h239z" />
    <glyph glyph-name="Zdotaccent" unicode="&#x17b;" horiz-adv-x="379" 
d="M163 832h68v-90h-68v90zM347 71v-71h-318v70l240 559h-229v71h309v-70l-241 -559h239z" />
    <glyph glyph-name="zdotaccent" unicode="&#x17c;" horiz-adv-x="379" 
d="M163 832h68v-90h-68v90zM347 71v-71h-318v70l240 559h-229v71h309v-70l-241 -559h239z" />
    <glyph glyph-name="Zcaron" unicode="&#x17d;" horiz-adv-x="379" 
d="M73 842h68l52 -60l54 60h68l-87 -101h-69zM347 71v-71h-318v70l240 559h-229v71h309v-70l-241 -559h239z" />
    <glyph glyph-name="zcaron" unicode="&#x17e;" horiz-adv-x="379" 
d="M73 842h68l52 -60l54 60h68l-87 -101h-69zM347 71v-71h-318v70l240 559h-229v71h309v-70l-241 -559h239z" />
    <glyph glyph-name="AEacute" unicode="&#x1fc;" horiz-adv-x="585" 
d="M333 844h77l-93 -103h-54zM355 390h161v-70h-161v-249h198v-71h-275v142h-143l-45 -142h-74l218 700h319v-71h-198v-239zM278 602l-125 -392h125v392z" />
    <glyph glyph-name="aeacute" unicode="&#x1fd;" horiz-adv-x="585" 
d="M333 844h77l-93 -103h-54zM355 390h161v-70h-161v-249h198v-71h-275v142h-143l-45 -142h-74l218 700h319v-71h-198v-239zM278 602l-125 -392h125v392z" />
    <glyph glyph-name="Oslashacute" unicode="&#x1fe;" horiz-adv-x="389" 
d="M149 742l70 103h78l-93 -103h-55zM350 712l-25 -66q30 -45 30 -115v-362q0 -82 -41 -129t-120 -47q-63 0 -102 31l-19 -50l-34 13l25 67q-30 45 -30 115v362q0 82 40.5 129t119.5 47q63 0 103 -31l18 49zM111 180l155 414q-20 42 -72 42q-83 0 -83 -101v-355zM194 64
q83 0 83 101v353l-155 -413q20 -41 72 -41z" />
    <glyph glyph-name="oslashacute" unicode="&#x1ff;" horiz-adv-x="389" 
d="M149 742l70 103h78l-93 -103h-55zM350 712l-25 -66q30 -45 30 -115v-362q0 -82 -41 -129t-120 -47q-63 0 -102 31l-19 -50l-34 13l25 67q-30 45 -30 115v362q0 82 40.5 129t119.5 47q63 0 103 -31l18 49zM111 180l155 414q-20 42 -72 42q-83 0 -83 -101v-355zM194 64
q83 0 83 101v353l-155 -413q20 -41 72 -41z" />
    <glyph glyph-name="uni0218" unicode="&#x218;" horiz-adv-x="372" 
d="M187 707q77 0 116.5 -46.5t39.5 -128.5v-19h-74v23q0 100 -80 100t-80 -99q0 -37 17.5 -68.5t43.5 -53l56.5 -48l56.5 -51t43.5 -63.5t17.5 -85q0 -82 -40 -128.5t-118 -46.5t-117.5 46.5t-39.5 128.5v40h73v-44q0 -100 82 -100t82 100q0 32 -13 59t-33.5 48t-45.5 41
l-50 42t-45.5 46t-33.5 58t-13 74q0 83 39 129t116 46zM153 -177l23 56h-25v88h66v-81l-35 -63h-29z" />
    <glyph glyph-name="uni0219" unicode="&#x219;" horiz-adv-x="372" 
d="M187 707q77 0 116.5 -46.5t39.5 -128.5v-19h-74v23q0 100 -80 100t-80 -99q0 -37 17.5 -68.5t43.5 -53l56.5 -48l56.5 -51t43.5 -63.5t17.5 -85q0 -82 -40 -128.5t-118 -46.5t-117.5 46.5t-39.5 128.5v40h73v-44q0 -100 82 -100t82 100q0 32 -13 59t-33.5 48t-45.5 41
l-50 42t-45.5 46t-33.5 58t-13 74q0 83 39 129t116 46zM153 -177l23 56h-25v88h66v-81l-35 -63h-29z" />
    <glyph glyph-name="uni021A" unicode="&#x21a;" horiz-adv-x="372" 
d="M225 0h-78v629h-129v71h336v-71h-129v-629zM155 -177l23 56h-25v88h66v-81l-35 -63h-29z" />
    <glyph glyph-name="uni021B" unicode="&#x21b;" horiz-adv-x="372" 
d="M225 0h-78v629h-129v71h336v-71h-129v-629zM155 -177l23 56h-25v88h66v-81l-35 -63h-29z" />
    <glyph glyph-name="uni0237" unicode="&#x237;" horiz-adv-x="255" 
d="M20 0v71q13 -1 39 -1q41 2 61.5 24.5t20.5 73.5v532h77v-527q0 -170 -149 -174q-41 0 -49 1z" />
    <glyph glyph-name="uni02BC" unicode="&#x2bc;" horiz-adv-x="160" 
d="M120 611l-39 -96h-32l25 88h-29v97h75v-89z" />
    <glyph glyph-name="circumflex" unicode="&#x2c6;" horiz-adv-x="250" 
d="M125 807l-53 -59h-68l87 100h69l86 -100h-68z" />
    <glyph glyph-name="caron" unicode="&#x2c7;" horiz-adv-x="250" 
d="M4 848h68l53 -60l53 60h68l-86 -100h-69z" />
    <glyph glyph-name="breve" unicode="&#x2d8;" horiz-adv-x="252" 
d="M183 834h48q-1 -47 -29 -74t-77 -27q-48 0 -75 27t-28 74h47q3 -52 56 -52q55 0 58 52z" />
    <glyph glyph-name="dotaccent" unicode="&#x2d9;" horiz-adv-x="198" 
d="M65 833h68v-90h-68v90z" />
    <glyph glyph-name="ring" unicode="&#x2da;" horiz-adv-x="234" 
d="M117 887q31 0 52 -21t21 -52t-21 -52t-52 -21t-52.5 21t-21.5 52t21.5 52t52.5 21zM117 850q-16 0 -26.5 -10t-10.5 -26t10.5 -26t26.5 -10q15 0 25.5 10t10.5 26t-10.5 26t-25.5 10z" />
    <glyph glyph-name="ogonek" unicode="&#x2db;" horiz-adv-x="227" 
d="M111 3h34q-42 -32 -40 -72q0 -30 37 -30q20 0 40 9v-41q-27 -12 -62 -12q-34 0 -54.5 14t-20.5 42q-2 51 66 90z" />
    <glyph glyph-name="tilde" unicode="&#x2dc;" horiz-adv-x="256" 
d="M212 828l38 -26q-22 -58 -71 -58q-20 0 -48.5 14.5t-43.5 14.5q-27 0 -42 -29l-39 26q24 58 74 58q21 0 49.5 -14.5t42.5 -14.5q25 0 40 29z" />
    <glyph glyph-name="hungarumlaut" unicode="&#x2dd;" horiz-adv-x="242" 
d="M54 848h72l-80 -103h-50zM161 848h72l-80 -103h-49z" />
    <glyph glyph-name="uni0401" unicode="&#x401;" horiz-adv-x="360" 
d="M87 831h68v-90h-68v90zM211 831h69v-90h-69v90zM118 390h171v-70h-171v-249h210v-71h-288v700h288v-71h-210v-239z" />
    <glyph glyph-name="uni0410" unicode="&#x410;" horiz-adv-x="422" 
d="M296 141h-177l-27 -141h-72l134 700h113l134 -700h-78zM206 612l-77 -404h156z" />
    <glyph glyph-name="uni0411" unicode="&#x411;" horiz-adv-x="401" 
d="M118 411h82q165 0 165 -164v-77q0 -170 -161 -170h-163v700h295v-71h-218v-218zM118 71h86q43 0 63 22.5t20 71.5v87q0 49 -21 69t-66 20h-82v-270z" />
    <glyph glyph-name="uni0412" unicode="&#x412;" horiz-adv-x="392" 
d="M40 700h157q80 0 116 -38t36 -117v-33q0 -58 -19 -91.5t-63 -47.5q94 -26 94 -150v-59q0 -164 -160 -164h-161v700zM118 403h60q49 0 71.5 20t22.5 73v41q0 47 -18 69.5t-59 22.5h-77v-226zM118 71h83q83 0 83 95v62q0 57 -23 80.5t-75 23.5h-68v-261z" />
    <glyph glyph-name="uni0413" unicode="&#x413;" horiz-adv-x="356" 
d="M320 629h-202v-629h-77v700h279v-71z" />
    <glyph glyph-name="uni0414" unicode="&#x414;" horiz-adv-x="489" 
d="M461 -96h-76v96h-286v-96h-75v165h45q28 31 31 102l27 529h281v-631h53v-165zM199 629l-23 -457q-4 -74 -32 -103h185v560h-130z" />
    <glyph glyph-name="uni0415" unicode="&#x415;" horiz-adv-x="360" 
d="M118 390h171v-70h-171v-249h210v-71h-288v700h288v-71h-210v-239z" />
    <glyph glyph-name="uni0416" unicode="&#x416;" horiz-adv-x="613" 
d="M516 0l-134 330l-37 -66v-264h-77v264l-36 67l-134 -331h-80l160 403l-156 297h78l168 -322v322h77v-322l169 322h78l-155 -295l159 -405h-80z" />
    <glyph glyph-name="uni0417" unicode="&#x417;" 
d="M193 707q79 0 118.5 -47t39.5 -129v-18q0 -113 -86 -145q86 -29 86 -144v-55q0 -82 -39.5 -129t-118.5 -47q-78 0 -117.5 47t-39.5 129v68h73v-72q0 -101 82 -101t82 107v55q0 104 -90 104h-33v70h37q39 0 62.5 25.5t23.5 70.5v32q0 108 -82 108t-82 -101v-47h-72v44
q0 83 39 129t117 46z" />
    <glyph glyph-name="uni0418" unicode="&#x418;" horiz-adv-x="409" 
d="M300 557l-75 -232l-104 -325h-81v700h69v-522l72 221l102 301h87v-700h-70v557z" />
    <glyph glyph-name="uni0419" unicode="&#x419;" horiz-adv-x="410" 
d="M269 844h48q0 -46 -29 -72t-79 -26t-78 26t-30 72h49q4 -51 59 -51q56 0 60 51zM300 557l-73 -226l-106 -331h-81v700h69v-522l66 205l108 317h87v-700h-70v557z" />
    <glyph glyph-name="uni041A" unicode="&#x41a;" horiz-adv-x="409" 
d="M309 0l-150 304l-41 -69v-235h-78v700h78v-338l186 338h79l-177 -319l183 -381h-80z" />
    <glyph glyph-name="uni041B" unicode="&#x41b;" horiz-adv-x="444" 
d="M323 629h-134l-16 -455q-3 -89 -34 -131.5t-107 -43.5h-13v71q46 0 61 22.5t17 77.5l19 530h285v-700h-78v629z" />
    <glyph glyph-name="uni041C" unicode="&#x41c;" horiz-adv-x="523" 
d="M409 563l-111 -562h-75l-116 557v-558h-68v700h109l115 -559l111 559h109v-700h-74v563z" />
    <glyph glyph-name="uni041D" unicode="&#x41d;" horiz-adv-x="408" 
d="M290 315h-172v-315h-78v700h78v-315h172v315h78v-700h-78v315z" />
    <glyph glyph-name="uni041E" unicode="&#x41e;" horiz-adv-x="389" 
d="M34 169v362q0 82 40.5 129t119.5 47t120 -47t41 -129v-362q0 -82 -41 -129t-120 -47q-78 0 -119 47t-41 129zM111 535v-370q0 -101 83 -101t83 101v370q0 101 -83 101t-83 -101z" />
    <glyph glyph-name="uni041F" unicode="&#x41f;" horiz-adv-x="408" 
d="M290 629h-172v-629h-78v700h328v-700h-78v629z" />
    <glyph glyph-name="uni0420" unicode="&#x420;" horiz-adv-x="371" 
d="M40 700h153q157 0 157 -171v-84q0 -169 -163 -169h-69v-276h-78v700zM118 346h69q44 0 65 22t21 72v93q0 49 -19 72.5t-61 23.5h-75v-283z" />
    <glyph glyph-name="uni0421" unicode="&#x421;" horiz-adv-x="380" 
d="M191 707q79 0 118.5 -47t39.5 -129v-63h-74v67q0 101 -82 101t-82 -101v-370q0 -101 82 -101t82 101v91h74v-87q0 -82 -39.5 -129t-118.5 -47q-78 0 -117.5 47t-39.5 129v362q0 82 39.5 129t117.5 47z" />
    <glyph glyph-name="uni0422" unicode="&#x422;" horiz-adv-x="372" 
d="M225 0h-78v629h-129v71h336v-71h-129v-629z" />
    <glyph glyph-name="uni0423" unicode="&#x423;" horiz-adv-x="417" 
d="M400 700l-150 -546q-20 -86 -58.5 -122.5t-128.5 -32.5v70q45 -2 67.5 13.5t32.5 55.5l16 46l-161 516h78l71 -243l48 -176l41 176l63 243h81z" />
    <glyph glyph-name="uni0424" unicode="&#x424;" horiz-adv-x="569" 
d="M322 618h49q162 0 162 -175v-191q0 -175 -162 -175h-49v-77h-77v77h-49q-162 0 -162 175v191q0 175 162 175h49v82h77v-82zM245 549h-49q-85 0 -85 -101v-201q0 -102 85 -102h49v404zM322 145h49q86 0 86 102v201q0 101 -86 101h-49v-404z" />
    <glyph glyph-name="uni0425" unicode="&#x425;" horiz-adv-x="435" 
d="M330 0l-116 302l-117 -302h-74l141 361l-132 339h81l108 -280l109 280h73l-131 -339l140 -361h-82z" />
    <glyph glyph-name="uni0426" unicode="&#x426;" horiz-adv-x="455" 
d="M428 -94h-76v94h-305v700h77v-629h172v629h79v-631h53v-163z" />
    <glyph glyph-name="uni0427" unicode="&#x427;" horiz-adv-x="401" 
d="M283 0v310q-38 -55 -109 -55q-68 0 -103.5 46t-35.5 120v279h78v-273q0 -45 23 -73t63 -28q72 0 84 82v292h77v-700h-77z" />
    <glyph glyph-name="uni0428" unicode="&#x428;" horiz-adv-x="581" 
d="M40 700h78v-629h134v629h78v-629h134v629h77v-700h-501v700z" />
    <glyph glyph-name="uni0429" unicode="&#x429;" horiz-adv-x="622" 
d="M595 -94h-75v94h-480v700h78v-629h134v629h77v-629h135v629h77v-631h54v-163z" />
    <glyph glyph-name="uni042A" unicode="&#x42a;" horiz-adv-x="438" 
d="M175 424h70q163 0 163 -169v-84q0 -171 -157 -171h-153v630h-88v70h165v-276zM175 71h76q42 0 60.5 23.5t18.5 72.5v93q0 50 -20.5 72t-64.5 22h-70v-283z" />
    <glyph glyph-name="uni042B" unicode="&#x42b;" horiz-adv-x="532" 
d="M118 424h69q163 0 163 -169v-84q0 -171 -157 -171h-153v700h78v-276zM415 700h77v-700h-77v700zM118 71h75q42 0 61 23.5t19 72.5v93q0 50 -21 72t-65 22h-69v-283z" />
    <glyph glyph-name="uni042C" unicode="&#x42c;" horiz-adv-x="381" 
d="M118 424h69q163 0 163 -169v-84q0 -171 -157 -171h-153v700h78v-276zM118 71h75q42 0 61 23.5t19 72.5v93q0 50 -21 72t-65 22h-69v-283z" />
    <glyph glyph-name="uni042D" unicode="&#x42d;" horiz-adv-x="380" 
d="M188 707q78 0 117.5 -47t39.5 -129v-362q0 -82 -39.5 -129t-117.5 -47t-117.5 47t-39.5 129v76h73v-80q0 -101 82 -101t82 101v162h-122v70h122v138q0 101 -82 101t-82 -101v-56h-72v52q0 82 39 129t117 47z" />
    <glyph glyph-name="uni042E" unicode="&#x42e;" horiz-adv-x="575" 
d="M380 707q79 0 119.5 -47t40.5 -129v-362q0 -82 -41 -129t-119 -47q-79 0 -120 47t-41 129v146h-101v-315h-78v700h78v-315h101v146q0 82 41 129t120 47zM380 636q-83 0 -83 -101v-370q0 -101 83 -101t83 101v370q0 101 -83 101z" />
    <glyph glyph-name="uni042F" unicode="&#x42f;" horiz-adv-x="394" 
d="M276 299h-55q-51 0 -76.5 -23.5t-25.5 -80.5v-110q0 -56 -13 -85h-79q14 28 14 84v109q0 120 87 146q-86 28 -86 144v57q0 80 37.5 120t118.5 40h156v-700h-78v299zM276 629h-76q-81 0 -81 -96v-67q0 -54 24.5 -75t73.5 -21h59v259z" />
    <glyph glyph-name="uni0430" unicode="&#x430;" horiz-adv-x="422" 
d="M296 141h-177l-27 -141h-72l134 700h113l134 -700h-78zM206 612l-77 -404h156z" />
    <glyph glyph-name="uni0431" unicode="&#x431;" horiz-adv-x="401" 
d="M118 411h82q165 0 165 -164v-77q0 -170 -161 -170h-163v700h295v-71h-218v-218zM118 71h86q43 0 63 22.5t20 71.5v87q0 49 -21 69t-66 20h-82v-270z" />
    <glyph glyph-name="uni0432" unicode="&#x432;" horiz-adv-x="392" 
d="M40 700h157q80 0 116 -38t36 -117v-33q0 -58 -19 -91.5t-63 -47.5q94 -26 94 -150v-59q0 -164 -160 -164h-161v700zM118 403h60q49 0 71.5 20t22.5 73v41q0 47 -18 69.5t-59 22.5h-77v-226zM118 71h83q83 0 83 95v62q0 57 -23 80.5t-75 23.5h-68v-261z" />
    <glyph glyph-name="uni0433" unicode="&#x433;" horiz-adv-x="356" 
d="M320 629h-202v-629h-77v700h279v-71z" />
    <glyph glyph-name="uni0434" unicode="&#x434;" horiz-adv-x="489" 
d="M461 -96h-76v96h-286v-96h-75v165h45q28 31 31 102l27 529h281v-631h53v-165zM199 629l-23 -457q-4 -74 -32 -103h185v560h-130z" />
    <glyph glyph-name="uni0435" unicode="&#x435;" horiz-adv-x="360" 
d="M118 390h171v-70h-171v-249h210v-71h-288v700h288v-71h-210v-239z" />
    <glyph glyph-name="uni0436" unicode="&#x436;" horiz-adv-x="613" 
d="M516 0l-134 330l-37 -66v-264h-77v264l-36 67l-134 -331h-80l160 403l-156 297h78l168 -322v322h77v-322l169 322h78l-155 -295l159 -405h-80z" />
    <glyph glyph-name="uni0437" unicode="&#x437;" 
d="M193 707q79 0 118.5 -47t39.5 -129v-18q0 -113 -86 -145q86 -29 86 -144v-55q0 -82 -39.5 -129t-118.5 -47q-78 0 -117.5 47t-39.5 129v68h73v-72q0 -101 82 -101t82 107v55q0 104 -90 104h-33v70h37q39 0 62.5 25.5t23.5 70.5v32q0 108 -82 108t-82 -101v-47h-72v44
q0 83 39 129t117 46z" />
    <glyph glyph-name="uni0438" unicode="&#x438;" horiz-adv-x="409" 
d="M300 557l-76 -234l-103 -323h-81v700h69v-522l62 193l112 329h87v-700h-70v557z" />
    <glyph glyph-name="uni0439" unicode="&#x439;" horiz-adv-x="410" 
d="M269 843h48q0 -46 -29 -72t-79 -26t-78 26t-30 72h49q4 -51 59 -51q56 0 60 51zM300 557l-70 -220l-109 -337h-81v700h69v-522l65 202l109 320h87v-700h-70v557z" />
    <glyph glyph-name="uni043A" unicode="&#x43a;" horiz-adv-x="409" 
d="M309 0l-150 304l-41 -69v-235h-78v700h78v-338l186 338h79l-177 -319l183 -381h-80z" />
    <glyph glyph-name="uni043B" unicode="&#x43b;" horiz-adv-x="444" 
d="M323 629h-134l-16 -455q-3 -89 -34 -131.5t-107 -43.5h-13v71q46 0 61 22.5t17 77.5l19 530h285v-700h-78v629z" />
    <glyph glyph-name="uni043C" unicode="&#x43c;" horiz-adv-x="523" 
d="M409 563l-111 -562h-75l-116 557v-558h-68v700h109l115 -559l111 559h109v-700h-74v563z" />
    <glyph glyph-name="uni043D" unicode="&#x43d;" horiz-adv-x="408" 
d="M290 315h-172v-315h-78v700h78v-315h172v315h78v-700h-78v315z" />
    <glyph glyph-name="uni043E" unicode="&#x43e;" horiz-adv-x="389" 
d="M34 169v362q0 82 40.5 129t119.5 47t120 -47t41 -129v-362q0 -82 -41 -129t-120 -47q-78 0 -119 47t-41 129zM111 535v-370q0 -101 83 -101t83 101v370q0 101 -83 101t-83 -101z" />
    <glyph glyph-name="uni043F" unicode="&#x43f;" horiz-adv-x="408" 
d="M290 629h-172v-629h-78v700h328v-700h-78v629z" />
    <glyph glyph-name="uni0440" unicode="&#x440;" horiz-adv-x="371" 
d="M40 700h153q157 0 157 -171v-84q0 -169 -163 -169h-69v-276h-78v700zM118 346h69q44 0 65 22t21 72v93q0 49 -19 72.5t-61 23.5h-75v-283z" />
    <glyph glyph-name="uni0441" unicode="&#x441;" horiz-adv-x="380" 
d="M191 707q79 0 118.5 -47t39.5 -129v-63h-74v67q0 101 -82 101t-82 -101v-370q0 -101 82 -101t82 101v91h74v-87q0 -82 -39.5 -129t-118.5 -47q-78 0 -117.5 47t-39.5 129v362q0 82 39.5 129t117.5 47z" />
    <glyph glyph-name="uni0442" unicode="&#x442;" horiz-adv-x="372" 
d="M225 0h-78v629h-129v71h336v-71h-129v-629z" />
    <glyph glyph-name="uni0443" unicode="&#x443;" horiz-adv-x="417" 
d="M400 700l-150 -546q-20 -86 -58.5 -122.5t-128.5 -32.5v70q45 -2 67.5 13.5t32.5 55.5l16 46l-161 516h78l71 -243l48 -176l41 176l63 243h81z" />
    <glyph glyph-name="uni0444" unicode="&#x444;" horiz-adv-x="569" 
d="M322 618h49q162 0 162 -175v-191q0 -175 -162 -175h-49v-77h-77v77h-49q-162 0 -162 175v191q0 175 162 175h49v82h77v-82zM245 549h-49q-85 0 -85 -101v-201q0 -102 85 -102h49v404zM322 145h49q86 0 86 102v201q0 101 -86 101h-49v-404z" />
    <glyph glyph-name="uni0445" unicode="&#x445;" horiz-adv-x="435" 
d="M330 0l-116 302l-117 -302h-74l141 361l-132 339h81l108 -280l109 280h73l-131 -339l140 -361h-82z" />
    <glyph glyph-name="uni0446" unicode="&#x446;" horiz-adv-x="455" 
d="M428 -94h-76v94h-305v700h77v-629h172v629h79v-631h53v-163z" />
    <glyph glyph-name="uni0447" unicode="&#x447;" horiz-adv-x="401" 
d="M283 0v310q-38 -55 -109 -55q-68 0 -103.5 46t-35.5 120v279h78v-273q0 -45 23 -73t63 -28q72 0 84 82v292h77v-700h-77z" />
    <glyph glyph-name="uni0448" unicode="&#x448;" horiz-adv-x="581" 
d="M40 700h78v-629h134v629h78v-629h134v629h77v-700h-501v700z" />
    <glyph glyph-name="uni0449" unicode="&#x449;" horiz-adv-x="622" 
d="M595 -94h-75v94h-480v700h78v-629h134v629h77v-629h135v629h77v-631h54v-163z" />
    <glyph glyph-name="uni044A" unicode="&#x44a;" horiz-adv-x="438" 
d="M175 424h70q163 0 163 -169v-84q0 -171 -157 -171h-153v630h-88v70h165v-276zM175 71h76q42 0 60.5 23.5t18.5 72.5v93q0 50 -20.5 72t-64.5 22h-70v-283z" />
    <glyph glyph-name="uni044B" unicode="&#x44b;" horiz-adv-x="532" 
d="M118 424h69q163 0 163 -169v-84q0 -171 -157 -171h-153v700h78v-276zM415 700h77v-700h-77v700zM118 71h75q42 0 61 23.5t19 72.5v93q0 50 -21 72t-65 22h-69v-283z" />
    <glyph glyph-name="uni044C" unicode="&#x44c;" horiz-adv-x="381" 
d="M118 424h69q163 0 163 -169v-84q0 -171 -157 -171h-153v700h78v-276zM118 71h75q42 0 61 23.5t19 72.5v93q0 50 -21 72t-65 22h-69v-283z" />
    <glyph glyph-name="uni044D" unicode="&#x44d;" horiz-adv-x="380" 
d="M188 707q78 0 117.5 -47t39.5 -129v-362q0 -82 -39.5 -129t-117.5 -47t-117.5 47t-39.5 129v76h73v-80q0 -101 82 -101t82 101v162h-122v70h122v138q0 101 -82 101t-82 -101v-56h-72v52q0 82 39 129t117 47z" />
    <glyph glyph-name="uni044E" unicode="&#x44e;" horiz-adv-x="575" 
d="M380 707q79 0 119.5 -47t40.5 -129v-362q0 -82 -41 -129t-119 -47q-79 0 -120 47t-41 129v146h-101v-315h-78v700h78v-315h101v146q0 82 41 129t120 47zM380 636q-83 0 -83 -101v-370q0 -101 83 -101t83 101v370q0 101 -83 101z" />
    <glyph glyph-name="uni044F" unicode="&#x44f;" horiz-adv-x="394" 
d="M276 299h-55q-51 0 -76.5 -23.5t-25.5 -80.5v-110q0 -56 -13 -85h-79q14 28 14 84v109q0 120 87 146q-86 28 -86 144v57q0 80 37.5 120t118.5 40h156v-700h-78v299zM276 629h-76q-81 0 -81 -96v-67q0 -54 24.5 -75t73.5 -21h59v259z" />
    <glyph glyph-name="uni0451" unicode="&#x451;" horiz-adv-x="360" 
d="M87 831h68v-90h-68v90zM211 831h69v-90h-69v90zM118 390h171v-70h-171v-249h210v-71h-288v700h288v-71h-210v-239z" />
    <glyph glyph-name="uni1E02" unicode="&#x1e02;" horiz-adv-x="392" 
d="M144 830h68v-90h-68v90zM40 700h157q80 0 116 -38t36 -117v-33q0 -58 -19 -91.5t-63 -47.5q94 -26 94 -150v-59q0 -164 -160 -164h-161v700zM118 403h60q49 0 71.5 20t22.5 73v41q0 47 -18 69.5t-59 22.5h-77v-226zM118 71h83q83 0 83 95v62q0 57 -23 80.5t-75 23.5h-68
v-261z" />
    <glyph glyph-name="uni1E03" unicode="&#x1e03;" horiz-adv-x="392" 
d="M144 830h68v-90h-68v90zM40 700h157q80 0 116 -38t36 -117v-33q0 -58 -19 -91.5t-63 -47.5q94 -26 94 -150v-59q0 -164 -160 -164h-161v700zM118 403h60q49 0 71.5 20t22.5 73v41q0 47 -18 69.5t-59 22.5h-77v-226zM118 71h83q83 0 83 95v62q0 57 -23 80.5t-75 23.5h-68
v-261z" />
    <glyph glyph-name="uni1E0A" unicode="&#x1e0a;" horiz-adv-x="396" 
d="M151 830h68v-90h-68v90zM40 700h164q80 0 119.5 -45.5t39.5 -128.5v-353q0 -82 -39.5 -127.5t-119.5 -45.5h-164v700zM118 71h85q83 0 83 99v360q0 99 -84 99h-84v-558z" />
    <glyph glyph-name="uni1E0B" unicode="&#x1e0b;" horiz-adv-x="396" 
d="M151 830h68v-90h-68v90zM40 700h164q80 0 119.5 -45.5t39.5 -128.5v-353q0 -82 -39.5 -127.5t-119.5 -45.5h-164v700zM118 71h85q83 0 83 99v360q0 99 -84 99h-84v-558z" />
    <glyph glyph-name="uni1E1E" unicode="&#x1e1e;" horiz-adv-x="340" 
d="M143 829h68v-90h-68v90zM118 374h161v-71h-161v-303h-78v700h278v-71h-200v-255z" />
    <glyph glyph-name="uni1E1F" unicode="&#x1e1f;" horiz-adv-x="340" 
d="M146 830h68v-90h-68v90zM118 374h161v-71h-161v-303h-78v700h278v-71h-200v-255z" />
    <glyph glyph-name="uni1E40" unicode="&#x1e40;" horiz-adv-x="523" 
d="M227 832h68v-91h-68v91zM409 563l-111 -562h-75l-116 557v-558h-68v700h109l115 -559l111 559h109v-700h-74v563z" />
    <glyph glyph-name="uni1E41" unicode="&#x1e41;" horiz-adv-x="523" 
d="M227 832h68v-90h-68v90zM409 563l-111 -562h-75l-116 557v-558h-68v700h109l115 -559l111 559h109v-700h-74v563z" />
    <glyph glyph-name="uni1E56" unicode="&#x1e56;" horiz-adv-x="371" 
d="M146 830h68v-90h-68v90zM40 700h153q157 0 157 -171v-84q0 -169 -163 -169h-69v-276h-78v700zM118 346h69q44 0 65 22t21 72v93q0 49 -19 72.5t-61 23.5h-75v-283z" />
    <glyph glyph-name="uni1E57" unicode="&#x1e57;" horiz-adv-x="371" 
d="M149 830h68v-90h-68v90zM40 700h153q157 0 157 -171v-84q0 -169 -163 -169h-69v-276h-78v700zM118 346h69q44 0 65 22t21 72v93q0 49 -19 72.5t-61 23.5h-75v-283z" />
    <glyph glyph-name="uni1E60" unicode="&#x1e60;" horiz-adv-x="372" 
d="M152 830h68v-90h-68v90zM187 707q77 0 116.5 -46.5t39.5 -128.5v-19h-74v23q0 100 -80 100t-80 -99q0 -37 17.5 -68.5t43.5 -53l56.5 -48l56.5 -51t43.5 -63.5t17.5 -85q0 -82 -40 -128.5t-118 -46.5t-117.5 46.5t-39.5 128.5v40h73v-44q0 -100 82 -100t82 100
q0 32 -13 59t-33.5 48t-45.5 41l-50 42t-45.5 46t-33.5 58t-13 74q0 83 39 129t116 46z" />
    <glyph glyph-name="uni1E61" unicode="&#x1e61;" horiz-adv-x="372" 
d="M155 833h68v-90h-68v90zM187 707q77 0 116.5 -46.5t39.5 -128.5v-19h-74v23q0 100 -80 100t-80 -99q0 -37 17.5 -68.5t43.5 -53l56.5 -48l56.5 -51t43.5 -63.5t17.5 -85q0 -82 -40 -128.5t-118 -46.5t-117.5 46.5t-39.5 128.5v40h73v-44q0 -100 82 -100t82 100
q0 32 -13 59t-33.5 48t-45.5 41l-50 42t-45.5 46t-33.5 58t-13 74q0 83 39 129t116 46z" />
    <glyph glyph-name="uni1E6A" unicode="&#x1e6a;" horiz-adv-x="372" 
d="M152 830h68v-90h-68v90zM225 0h-78v629h-129v71h336v-71h-129v-629z" />
    <glyph glyph-name="uni1E6B" unicode="&#x1e6b;" horiz-adv-x="372" 
d="M151 830h68v-90h-68v90zM224 0h-78v629h-129v71h336v-71h-129v-629z" />
    <glyph glyph-name="Wgrave" unicode="&#x1e80;" horiz-adv-x="583" 
d="M196 845h81l69 -103h-57zM295 475l-69 -475h-107l-96 700h76l82 -596l78 595h77l77 -596l79 597h68l-95 -700h-103z" />
    <glyph glyph-name="wgrave" unicode="&#x1e81;" horiz-adv-x="583" 
d="M196 845h81l69 -103h-57zM295 475l-69 -475h-107l-96 700h76l82 -596l78 595h77l77 -596l79 597h68l-95 -700h-103z" />
    <glyph glyph-name="Wacute" unicode="&#x1e82;" horiz-adv-x="583" 
d="M313 842h78l-93 -103h-55zM295 475l-69 -475h-107l-96 700h76l82 -596l78 595h77l77 -596l79 597h68l-95 -700h-103z" />
    <glyph glyph-name="wacute" unicode="&#x1e83;" horiz-adv-x="583" 
d="M313 842h78l-93 -103h-55zM295 475l-69 -475h-107l-96 700h76l82 -596l78 595h77l77 -596l79 597h68l-95 -700h-103z" />
    <glyph glyph-name="Wdieresis" unicode="&#x1e84;" horiz-adv-x="583" 
d="M197 831h68v-90h-68v90zM321 831h68v-90h-68v90zM295 475l-69 -475h-107l-96 700h76l82 -596l78 595h77l77 -596l79 597h68l-95 -700h-103z" />
    <glyph glyph-name="wdieresis" unicode="&#x1e85;" horiz-adv-x="583" 
d="M197 831h68v-90h-68v90zM321 831h68v-90h-68v90zM295 475l-69 -475h-107l-96 700h76l82 -596l78 595h77l77 -596l79 597h68l-95 -700h-103z" />
    <glyph glyph-name="Ygrave" unicode="&#x1ef2;" horiz-adv-x="406" 
d="M105 845h81l69 -103h-57zM164 0v251l-148 449h81l109 -344l110 344h74l-149 -449v-251h-77z" />
    <glyph glyph-name="ygrave" unicode="&#x1ef3;" horiz-adv-x="406" 
d="M105 845h81l69 -103h-57zM164 0v251l-148 449h81l109 -344l110 344h74l-149 -449v-251h-77z" />
    <glyph glyph-name="figuredash" unicode="&#x2012;" horiz-adv-x="425" 
d="M13 318v64h399v-64h-399z" />
    <glyph glyph-name="endash" unicode="&#x2013;" horiz-adv-x="458" 
d="M13 318v64h432v-64h-432z" />
    <glyph glyph-name="emdash" unicode="&#x2014;" horiz-adv-x="833" 
d="M13 318v64h807v-64h-807z" />
    <glyph glyph-name="quoteleft" unicode="&#x2018;" horiz-adv-x="160" 
d="M40 605l38 95h33l-25 -88h29v-97h-75v90z" />
    <glyph glyph-name="quoteright" unicode="&#x2019;" horiz-adv-x="160" 
d="M120 611l-39 -96h-32l25 88h-29v97h75v-89z" />
    <glyph glyph-name="quotesinglbase" unicode="&#x201a;" horiz-adv-x="160" 
d="M120 7l-39 -95h-32l25 88h-29v97h75v-90z" />
    <glyph glyph-name="quotedblleft" unicode="&#x201c;" horiz-adv-x="271" 
d="M40 605l38 95h33l-25 -88h29v-97h-75v90zM152 605l38 95h32l-24 -88h28v-97h-74v90z" />
    <glyph glyph-name="quotedblright" unicode="&#x201d;" horiz-adv-x="271" 
d="M114 610l-38 -95h-32l24 88h-28v97h74v-90zM226 610l-38 -95h-33l25 88h-29v97h75v-90z" />
    <glyph glyph-name="quotedblbase" unicode="&#x201e;" horiz-adv-x="274" 
d="M120 7l-39 -95h-32l25 88h-29v97h75v-90zM234 7l-38 -95h-33l25 88h-29v97h75v-90z" />
    <glyph glyph-name="dagger" unicode="&#x2020;" horiz-adv-x="394" 
d="M229 700v-187h136v-61h-136v-517h-64v517h-135v61h135v187h64z" />
    <glyph glyph-name="daggerdbl" unicode="&#x2021;" horiz-adv-x="394" 
d="M229 700v-187h136v-61h-136v-268h136v-61h-136v-188h-64v188h-135v61h135v268h-135v61h135v187h64z" />
    <glyph glyph-name="bullet" unicode="&#x2022;" horiz-adv-x="328" 
d="M164 455q44 0 74.5 -30.5t30.5 -74.5t-30.5 -74.5t-74.5 -30.5t-74.5 30.5t-30.5 74.5t30.5 74.5t74.5 30.5z" />
    <glyph glyph-name="ellipsis" unicode="&#x2026;" horiz-adv-x="379" 
d="M40 97h75v-97h-75v97zM152 97h75v-97h-75v97zM264 97h75v-97h-75v97z" />
    <glyph glyph-name="perthousand" unicode="&#x2030;" horiz-adv-x="867" 
d="M136 704q49 0 74.5 -30.5t25.5 -82.5v-221q0 -53 -25 -83t-75 -30t-75 30t-25 83v221q0 52 25.5 82.5t74.5 30.5zM420 700h47l-276 -700h-47zM136 658q-50 0 -50 -64v-228q0 -63 50 -63t50 63v228q0 64 -50 64zM480 442q50 0 75 -30t25 -82v-220q0 -53 -25 -83t-75 -30
t-75 30t-25 83v220q0 52 25 82t75 30zM731 442q50 0 75 -30t25 -82v-220q0 -53 -25 -83t-75 -30t-75 30t-25 83v220q0 52 25 82t75 30zM480 396q-50 0 -50 -63v-227q0 -64 50 -64t50 64v227q0 63 -50 63zM731 396q-49 0 -49 -63v-227q0 -64 49 -64q50 0 50 64v227
q0 63 -50 63z" />
    <glyph glyph-name="guilsinglleft" unicode="&#x2039;" horiz-adv-x="183" 
d="M86 83l-62 268l62 257h74l-62 -257l62 -268h-74z" />
    <glyph glyph-name="guilsinglright" unicode="&#x203a;" horiz-adv-x="183" 
d="M24 84l61 267l-61 257h73l63 -257l-63 -267h-73z" />
    <glyph glyph-name="fraction" unicode="&#x2044;" horiz-adv-x="164" 
d="M197 700h47l-276 -700h-47z" />
    <glyph glyph-name="zerosuperior" unicode="&#x2070;" horiz-adv-x="277" 
d="M36 459v228q0 53 25.5 83t76.5 30t77 -30t26 -83v-228q0 -53 -26 -83t-77 -30t-76.5 30t-25.5 83zM86 691v-236q0 -63 52 -63t52 63v236q0 63 -52 63t-52 -63z" />
    <glyph glyph-name="foursuperior" unicode="&#x2074;" horiz-adv-x="283" 
d="M257 439h-35v-88h-50v88h-143v47l138 309h55v-309h35v-47zM172 698l-97 -212h97v212z" />
    <glyph glyph-name="fivesuperior" unicode="&#x2075;" horiz-adv-x="275" 
d="M86 487v-33q0 -63 51 -63t51 63v86q0 63 -51 63q-20 0 -33.5 -12t-15.5 -35v-10h-48l13 248h175v-46h-131l-6 -133q21 35 66 35q41 0 61.5 -28t20.5 -78v-87q0 -53 -25.5 -83t-75.5 -30t-75 30t-25 83v30h48z" />
    <glyph glyph-name="sixsuperior" unicode="&#x2076;" horiz-adv-x="277" 
d="M140 800q50 0 75.5 -29.5t25.5 -82.5v-8h-48v11q0 63 -51 63q-54 0 -54 -71v-96q20 45 71 45q83 0 83 -106v-67q0 -53 -26 -83t-76 -30t-76.5 30.5t-26.5 82.5v226q0 54 25.5 84.5t77.5 30.5zM140 586q-52 0 -52 -64v-67q0 -63 52 -63t52 63v67q0 64 -52 64z" />
    <glyph glyph-name="sevensuperior" unicode="&#x2077;" horiz-adv-x="275" 
d="M74 351l113 398h-150v46h202v-44l-115 -400h-50z" />
    <glyph glyph-name="eightsuperior" unicode="&#x2078;" horiz-adv-x="279" 
d="M139 800q51 0 78.5 -29t27.5 -81v-15q0 -69 -49 -91q49 -22 49 -94v-33q0 -52 -27 -81.5t-79 -29.5q-51 0 -78 29.5t-27 81.5v33q0 71 48 94q-48 22 -48 91v15q0 52 27.5 81t77.5 29zM139 754q-55 0 -55 -66v-21q0 -62 55 -62t55 62v21q0 66 -55 66zM139 559
q-55 0 -55 -63v-38q0 -66 55 -66t55 66v38q0 63 -55 63z" />
    <glyph glyph-name="ninesuperior" unicode="&#x2079;" horiz-adv-x="277" 
d="M137 800q50 0 76 -30t26 -83v-226q0 -115 -103 -115q-50 0 -75.5 30t-25.5 82v8h48v-11q0 -63 52 -63q54 0 54 71v96q-20 -45 -72 -45q-41 0 -61.5 28t-20.5 78v67q0 53 26 83t76 30zM137 754q-52 0 -52 -63v-67q0 -64 52 -64t52 64v67q0 63 -52 63z" />
    <glyph glyph-name="zeroinferior" unicode="&#x2080;" horiz-adv-x="277" 
d="M36 43v228q0 53 25.5 83t76.5 30t77 -30t26 -83v-228q0 -53 -26 -83t-77 -30t-76.5 30t-25.5 83zM86 275v-236q0 -63 52 -63t52 63v236q0 63 -52 63t-52 -63z" />
    <glyph glyph-name="oneinferior" unicode="&#x2081;" horiz-adv-x="189" 
d="M91 -65v367q-25 -15 -61 -18v37q33 1 49 15.5t27 42.5h35v-444h-50z" />
    <glyph glyph-name="twoinferior" unicode="&#x2082;" horiz-adv-x="275" 
d="M142 385q50 0 75 -30t25 -83q0 -37 -15.5 -71t-38 -59.5l-45 -49.5t-38 -51.5t-14.5 -55.5v-4h146v-46h-196v38q0 39 15.5 73t37.5 58.5l44.5 48t38 53.5t15.5 65q0 68 -52 68q-51 0 -51 -65v-38h-48v35q0 53 25 83.5t76 30.5z" />
    <glyph glyph-name="threeinferior" unicode="&#x2083;" horiz-adv-x="275" 
d="M138 384q50 0 75 -30t25 -83v-11q0 -70 -52 -91q52 -20 52 -92v-34q0 -53 -25 -83t-75 -30t-75.5 30t-25.5 83v30h48v-34q0 -63 51 -63q52 0 52 68v34q0 65 -55 65h-27v46h29q24 0 38.5 16.5t14.5 44.5v20q0 68 -52 68q-51 0 -51 -63v-23h-48v19q0 53 25.5 83t75.5 30z
" />
    <glyph glyph-name="fourinferior" unicode="&#x2084;" horiz-adv-x="283" 
d="M257 22h-35v-89h-50v89h-143v46l138 309h55v-309h35v-46zM172 280l-97 -212h97v212z" />
    <glyph glyph-name="fiveinferior" unicode="&#x2085;" horiz-adv-x="275" 
d="M86 73v-33q0 -63 51 -63t51 63v86q0 63 -51 63q-20 0 -33.5 -12t-15.5 -35v-10h-48l13 248h175v-46h-131l-6 -134q21 35 66 35q41 0 61.5 -28t20.5 -77v-88q0 -52 -25.5 -82t-75.5 -30t-75 30t-25 82v31h48z" />
    <glyph glyph-name="sixinferior" unicode="&#x2086;" horiz-adv-x="277" 
d="M140 384q50 0 75.5 -29.5t25.5 -82.5v-8h-48v11q0 63 -51 63q-54 0 -54 -71v-96q20 45 71 45q83 0 83 -106v-67q0 -53 -26 -83t-76 -30t-76.5 30.5t-26.5 82.5v226q0 54 25.5 84.5t77.5 30.5zM140 170q-52 0 -52 -64v-67q0 -63 52 -63t52 63v67q0 64 -52 64z" />
    <glyph glyph-name="seveninferior" unicode="&#x2087;" horiz-adv-x="275" 
d="M74 -63l113 398h-150v46h202v-44l-115 -400h-50z" />
    <glyph glyph-name="eightinferior" unicode="&#x2088;" horiz-adv-x="279" 
d="M139 384q51 0 78.5 -29t27.5 -81v-15q0 -69 -49 -91q49 -22 49 -94v-33q0 -52 -27 -81.5t-79 -29.5q-51 0 -78 29.5t-27 81.5v33q0 71 48 94q-48 22 -48 91v15q0 52 27.5 81t77.5 29zM139 338q-55 0 -55 -66v-21q0 -62 55 -62t55 62v21q0 66 -55 66zM139 143
q-55 0 -55 -63v-38q0 -66 55 -66t55 66v38q0 63 -55 63z" />
    <glyph glyph-name="nineinferior" unicode="&#x2089;" horiz-adv-x="277" 
d="M137 384q50 0 76 -30t26 -83v-226q0 -115 -103 -115q-50 0 -75.5 30t-25.5 82v8h48v-11q0 -63 52 -63q54 0 54 71v96q-20 -45 -72 -45q-41 0 -61.5 28t-20.5 78v67q0 53 26 83t76 30zM137 338q-52 0 -52 -63v-67q0 -64 52 -64t52 64v67q0 63 -52 63z" />
    <glyph glyph-name="Euro" unicode="&#x20ac;" horiz-adv-x="397" 
d="M57 427v104q0 83 38 129.5t116 46.5t116 -46.5t38 -129.5v-45h-73v49q0 101 -79 101t-79 -101v-108h174v-40h-174v-69h174v-41h-174v-112q0 -101 79 -101t79 101v54h73v-50q0 -82 -38 -129t-116 -47t-116 47t-38 129v108h-44v41h44v69h-44v40h44z" />
    <glyph glyph-name="uni20B9" unicode="&#x20b9;" horiz-adv-x="388" 
d="M357 639h-112q47 -29 51 -102h61v-61h-61q-5 -70 -49 -111.5t-116 -41.5h-17l242 -323h-84l-241 323v60h80q107 0 109 93h-188v61h188q0 102 -109 102h-79v61h325v-61z" />
    <glyph glyph-name="uni2117" unicode="&#x2117;" horiz-adv-x="742" 
d="M371 704q149 0 246.5 -100.5t97.5 -253.5q0 -152 -98 -253t-246 -101t-246 101t-98 253q0 153 97.5 253.5t246.5 100.5zM371 654q-127 0 -210 -86.5t-83 -217.5t83 -217.5t210 -86.5t210 86.5t83 217.5t-83 217.5t-210 86.5zM284 555h109q108 0 108 -113v-46
q0 -58 -27 -85.5t-85 -27.5h-51v-156h-54v428zM338 334h48q32 0 46.5 16.5t14.5 51.5v34q0 69 -57 69h-52v-171z" />
    <glyph glyph-name="trademark" unicode="&#x2122;" horiz-adv-x="583" 
d="M144 344h-50v310h-82v46h213v-46h-81v-310zM505 625l-69 -279h-48l-73 277v-279h-45v356h70l73 -278l70 278h70v-356h-48v281z" />
    <glyph glyph-name="uni2153" unicode="&#x2153;" horiz-adv-x="596" 
d="M118 256v367q-25 -15 -61 -18v37q33 1 49 15.5t27 42.5h35v-444h-50zM392 700h47l-276 -700h-47zM458 449q50 0 75.5 -30t25.5 -83v-11q0 -70 -53 -91q53 -20 53 -92v-34q0 -53 -25.5 -83t-75.5 -30q-100 0 -100 113v30h48v-34q0 -63 51 -63t51 68v34q0 65 -55 65h-27v46
h29q25 0 39.5 16.5t13.5 44.5v20q0 68 -51 68t-51 -63v-23h-48v19q0 113 100 113z" />
    <glyph glyph-name="uni2154" unicode="&#x2154;" horiz-adv-x="618" 
d="M142 705q50 0 75 -30t25 -83q0 -37 -15.5 -71t-38 -59l-44.5 -49t-37.5 -51.5t-15.5 -55.5v-5h146v-46h-196v38q0 40 15.5 73.5t37.5 58l44.5 48t38 54t15.5 64.5q0 68 -52 68q-51 0 -51 -65v-38h-48v36q0 53 25 83t76 30zM476 700l-276 -700h-47l276 700h47zM481 449
q50 0 75 -30t25 -83v-11q0 -70 -53 -91q53 -20 53 -92v-34q0 -53 -25 -83t-75 -30t-75.5 30t-25.5 83v30h48v-34q0 -63 51 -63t51 68v34q0 65 -55 65h-27v46h29q25 0 39.5 16.5t13.5 44.5v20q0 68 -51 68t-51 -63v-23h-48v19q0 53 25.5 83t75.5 30z" />
    <glyph glyph-name="oneeighth" unicode="&#x215b;" horiz-adv-x="601" 
d="M118 256v367q-25 -15 -61 -18v37q33 1 49 15.5t27 42.5h35v-444h-50zM163 0h-47l276 700h47zM462 449q50 0 77.5 -29t27.5 -81v-15q0 -69 -48 -91q48 -23 48 -94v-33q0 -52 -27 -81.5t-78 -29.5q-52 0 -79 29.5t-27 81.5v33q0 72 49 94q-49 22 -49 91v15q0 52 27.5 81
t78.5 29zM462 403q-55 0 -55 -66v-21q0 -62 55 -62t55 62v21q0 66 -55 66zM462 208q-55 0 -55 -63v-38q0 -66 55 -66t55 66v38q0 63 -55 63z" />
    <glyph glyph-name="threeeighths" unicode="&#x215c;" horiz-adv-x="626" 
d="M138 705q50 0 75 -30t25 -83v-11q0 -70 -52 -91q52 -20 52 -92v-34q0 -53 -25 -83t-75 -30t-75.5 30t-25.5 83v30h48v-34q0 -63 51 -63q52 0 52 68v34q0 65 -55 65h-27v46h29q24 0 38.5 16.5t14.5 44.5v20q0 68 -52 68q-51 0 -51 -63v-23h-48v19q0 53 25.5 83t75.5 30z
M426 700h47l-276 -700h-47zM487 449q51 0 78 -29t27 -81v-15q0 -70 -48 -91q48 -22 48 -94v-33q0 -52 -27 -81.5t-78 -29.5t-78 29.5t-27 81.5v33q0 72 48 94q-48 21 -48 91v15q0 52 27 81t78 29zM487 403q-55 0 -55 -66v-21q0 -62 55 -62t55 62v21q0 66 -55 66zM487 208
q-55 0 -55 -63v-38q0 -66 55 -66t55 66v38q0 63 -55 63z" />
    <glyph glyph-name="fiveeighths" unicode="&#x215d;" horiz-adv-x="626" 
d="M149 0l276 700h47l-276 -700h-47zM97 653l-6 -133q21 35 66 35q41 0 61.5 -28t20.5 -78v-87q0 -53 -25.5 -83t-75.5 -30t-75 30t-25 83v30h48v-33q0 -63 51 -63t51 63v86q0 63 -51 63q-20 0 -33.5 -12t-15.5 -35v-10h-48l13 248h175v-46h-131zM486 449q51 0 78.5 -29
t27.5 -81v-15q0 -69 -49 -91q49 -22 49 -94v-33q0 -52 -27 -81.5t-79 -29.5q-51 0 -78 29.5t-27 81.5v33q0 71 48 94q-48 22 -48 91v15q0 52 27.5 81t77.5 29zM486 403q-55 0 -55 -66v-21q0 -62 55 -62t55 62v21q0 66 -55 66zM486 208q-55 0 -55 -63v-38q0 -66 55 -66t55 66
v38q0 63 -55 63z" />
    <glyph glyph-name="seveneighths" unicode="&#x215e;" horiz-adv-x="594" 
d="M74 256l113 398h-150v46h202v-44l-115 -400h-50zM420 700l-276 -700h-47l276 700h47zM454 449q51 0 78.5 -29t27.5 -81v-15q0 -69 -49 -91q49 -22 49 -94v-33q0 -52 -27 -81.5t-79 -29.5q-51 0 -78 29.5t-27 81.5v33q0 72 48 94q-48 21 -48 91v15q0 52 27 81t78 29z
M454 403q-55 0 -55 -66v-21q0 -62 55 -62t55 62v21q0 66 -55 66zM454 208q-55 0 -55 -63v-38q0 -66 55 -66t55 66v38q0 63 -55 63z" />
    <glyph glyph-name="minus" unicode="&#x2212;" horiz-adv-x="392" 
d="M30 378h332v-56h-332v56z" />
    <glyph glyph-name="infinity" unicode="&#x221e;" horiz-adv-x="583" 
d="M405 483h13q62 0 97 -32t35 -93t-35 -92.5t-97 -31.5h-13q-85 0 -109 55q-25 -55 -112 -55h-12q-63 0 -98 32t-35 92q0 61 35.5 93t97.5 32h12q86 0 112 -56q24 56 109 56zM191 429h-18q-79 0 -79 -71q0 -69 79 -70h18q78 0 78 70q0 71 -78 71zM415 429h-18
q-77 0 -77 -71q0 -69 77 -70h18q80 0 80 70q0 34 -20.5 52.5t-59.5 18.5z" />
    <glyph glyph-name="approxequal" unicode="&#x2248;" horiz-adv-x="396" 
d="M125 492q30 0 79.5 -31t71.5 -31q17 1 30 13t34 43l38 -38q-49 -76 -103 -77q-28 -1 -77.5 30t-72.5 31q-19 0 -33.5 -12t-35.5 -43l-38 35q53 79 107 80zM125 328q30 1 79.5 -30t71.5 -31q12 0 22.5 7t18.5 17t23 31l38 -37q-27 -42 -51 -59.5t-52 -17.5q-29 -1 -78 30
t-72 31q-19 0 -33.5 -12.5t-35.5 -42.5l-38 35q53 79 107 79z" />
    <glyph glyph-name="uni25FC" unicode="&#x25fc;" horiz-adv-x="700" 
d="M0 700h700v-700h-700v700z" />
    <glyph glyph-name="commaaccentcomb" unicode="&#xf6c3;" horiz-adv-x="0" 
d="M137 -114l-35 -63h-29l23 56h-25v88h66v-81z" />
    <glyph glyph-name="NULL" horiz-adv-x="0" 
 />
    <glyph glyph-name="CR" horiz-adv-x="155" 
 />
    <glyph glyph-name="zero.alt" horiz-adv-x="389" 
d="M34 170v361q0 82 40.5 129t119.5 47t120 -47t41 -129v-361q0 -82 -41 -129.5t-120 -47.5q-78 0 -119 47.5t-41 129.5zM111 535v-370q0 -101 83 -101t83 101v370q0 102 -83 102t-83 -102z" />
    <glyph glyph-name="one.alt" horiz-adv-x="255" 
d="M123 0v573q-44 -27 -97 -30v64q52 2 78 26t42 67h54v-700h-77z" />
    <glyph glyph-name="two.alt" horiz-adv-x="368" 
d="M188 707q79 0 118 -47t39 -130q0 -59 -24.5 -112t-59 -92.5l-69.5 -77t-59.5 -81.5t-25.5 -89v-7h231v-71h-307v60q0 62 24.5 115t59.5 91.5l69.5 75t59 84t24.5 101.5q0 110 -82 110t-82 -103v-62h-73v57q0 83 39 130.5t118 47.5z" />
    <glyph glyph-name="three.alt" horiz-adv-x="377" 
d="M189 707q78 0 117.5 -46.5t39.5 -129.5v-18q0 -112 -85 -144q85 -32 85 -145v-54q0 -83 -39.5 -130t-117.5 -47q-79 0 -118.5 47t-39.5 130v48h74v-53q0 -101 82 -101t82 108v54q0 101 -89 104h-42v70h47q40 2 62 26.5t22 69.5v32q0 109 -82 109t-82 -102v-36h-74v32
q0 83 39.5 129.5t118.5 46.5z" />
    <glyph glyph-name="four.alt" horiz-adv-x="400" 
d="M380 141h-56v-141h-77v141h-225v71l217 488h85v-488h56v-71zM247 551l-153 -339h153v339z" />
    <glyph glyph-name="five.alt" horiz-adv-x="378" 
d="M124 630l-11 -215q34 58 105 58q65 0 97 -44t32 -122v-137q0 -83 -39.5 -130t-118.5 -47q-78 0 -117.5 47t-39.5 130v47h73v-52q0 -101 82 -101t82 101v136q0 101 -82 101q-69 0 -78 -75v-16h-74l20 389h276v-70h-207z" />
    <glyph glyph-name="six.alt" horiz-adv-x="386" 
d="M195 707q78 0 118 -46.5t40 -128.5v-13h-74v18q0 100 -82 100q-86 0 -86 -113v-157q31 75 114 75q65 0 97.5 -44t32.5 -122v-106q0 -82 -41 -129.5t-120 -47.5q-78 0 -119 47.5t-41 129.5v357q0 180 161 180zM194 371q-83 0 -83 -101v-105q0 -101 83 -101t83 101v105
q0 101 -83 101z" />
    <glyph glyph-name="seven.alt" horiz-adv-x="349" 
d="M79 0l173 630h-232v70h309v-68l-172 -632h-78z" />
    <glyph glyph-name="eight.alt" horiz-adv-x="393" 
d="M196 707q81 0 123.5 -45.5t42.5 -127.5v-22q0 -113 -80 -144q80 -32 80 -148v-52q0 -82 -42.5 -128.5t-123.5 -46.5q-80 0 -122.5 46.5t-42.5 128.5v52q0 114 81 148q-81 32 -81 144v22q0 82 42.5 127.5t122.5 45.5zM196 637q-87 0 -87 -105v-34q0 -98 87 -98q88 0 88 98
v34q0 105 -88 105zM196 330q-87 0 -87 -101v-59q0 -106 87 -106q88 0 88 106v59q0 101 -88 101z" />
    <glyph glyph-name="nine.alt" horiz-adv-x="386" 
d="M192 707q79 0 119.5 -47t40.5 -129v-357q0 -86 -39.5 -133.5t-121.5 -47.5q-78 0 -118 46.5t-40 129.5v13h73v-18q0 -100 83 -100q86 0 86 112v157q-31 -74 -114 -74q-65 0 -97.5 43.5t-32.5 121.5v107q0 82 41 129t120 47zM192 636q-83 0 -83 -101v-105q0 -101 83 -101
t83 101v105q0 101 -83 101z" />
    <glyph glyph-name="Edotaaccent" horiz-adv-x="405" 
 />
    <glyph glyph-name="edotaaccent" horiz-adv-x="405" 
 />
    <glyph glyph-name="lcute" horiz-adv-x="405" 
 />
    </font>
</defs>
</svg>
